  0
SECTION
  2
HEADER
  9
$ACADVER
  1
AC1018
  9
$ACADMAINTVER
 70
   104
  9
$DWGCODEPAGE
  3
ANSI_936
  9
$LASTSAVEDBY
  1
Administrator
  9
$INSBASE
 10
0.0
 20
0.0
 30
0.0
  9
$EXTMIN
 10
-0.0027171961429531
 20
-0.0140300482534031
 30
-0.000000000000013
  9
$EXTMAX
 10
375.0214546031774
 20
265.1886315264849
 30
0.0000000000000023
  9
$LIMMIN
 10
0.0
 20
0.0
  9
$LIMMAX
 10
420.0
 20
297.0
  9
$ORTHOMODE
 70
     0
  9
$REGENMODE
 70
     1
  9
$FILLMODE
 70
     1
  9
$QTEXTMODE
 70
     0
  9
$MIRRTEXT
 70
     0
  9
$LTSCALE
 40
1.0
  9
$ATTMODE
 70
     1
  9
$TEXTSIZE
 40
2.0
  9
$TRACEWID
 40
1.0
  9
$TEXTSTYLE
  7
尺寸标注用文字
  9
$CLAYER
  8
尺寸标注层
  9
$CELTYPE
  6
ByLayer
  9
$CECOLOR
 62
   256
  9
$CELTSCALE
 40
1.0
  9
$DISPSILH
 70
     0
  9
$DIMSCALE
 40
1.0
  9
$DIMASZ
 40
1.5
  9
$DIMEXO
 40
0.5
  9
$DIMDLI
 40
5.0
  9
$DIMRND
 40
0.0
  9
$DIMDLE
 40
0.0
  9
$DIMEXE
 40
0.5
  9
$DIMTP
 40
0.0
  9
$DIMTM
 40
0.0
  9
$DIMTXT
 40
2.0
  9
$DIMCEN
 40
0.0
  9
$DIMTSZ
 40
0.0
  9
$DIMTOL
 70
     0
  9
$DIMLIM
 70
     0
  9
$DIMTIH
 70
     0
  9
$DIMTOH
 70
     0
  9
$DIMSE1
 70
     0
  9
$DIMSE2
 70
     0
  9
$DIMTAD
 70
     1
  9
$DIMZIN
 70
     8
  9
$DIMBLK
  1

  9
$DIMASO
 70
     1
  9
$DIMSHO
 70
     1
  9
$DIMPOST
  1

  9
$DIMAPOST
  1

  9
$DIMALT
 70
     0
  9
$DIMALTD
 70
     2
  9
$DIMALTF
 40
25.4
  9
$DIMLFAC
 40
1.0
  9
$DIMTOFL
 70
     1
  9
$DIMTVP
 40
0.0
  9
$DIMTIX
 70
     0
  9
$DIMSOXD
 70
     0
  9
$DIMSAH
 70
     0
  9
$DIMBLK1
  1

  9
$DIMBLK2
  1

  9
$DIMSTYLE
  2
1比1-S
  9
$DIMCLRD
 70
     0
  9
$DIMCLRE
 70
     0
  9
$DIMCLRT
 70
     0
  9
$DIMTFAC
 40
1.0
  9
$DIMGAP
 40
0.5
  9
$DIMJUST
 70
     0
  9
$DIMSD1
 70
     0
  9
$DIMSD2
 70
     0
  9
$DIMTOLJ
 70
     1
  9
$DIMTZIN
 70
     0
  9
$DIMALTZ
 70
     0
  9
$DIMALTTZ
 70
     0
  9
$DIMUPT
 70
     1
  9
$DIMDEC
 70
     2
  9
$DIMTDEC
 70
     2
  9
$DIMALTU
 70
     2
  9
$DIMALTTD
 70
     2
  9
$DIMTXSTY
  7
尺寸标注用文字
  9
$DIMAUNIT
 70
     0
  9
$DIMADEC
 70
     1
  9
$DIMALTRND
 40
0.0
  9
$DIMAZIN
 70
     2
  9
$DIMDSEP
 70
    46
  9
$DIMATFIT
 70
     3
  9
$DIMFRAC
 70
     0
  9
$DIMLDRBLK
  1

  9
$DIMLUNIT
 70
     2
  9
$DIMLWD
 70
    -2
  9
$DIMLWE
 70
    -2
  9
$DIMTMOVE
 70
     0
  9
$LUNITS
 70
     2
  9
$LUPREC
 70
     4
  9
$SKETCHINC
 40
1.0
  9
$FILLETRAD
 40
0.0
  9
$AUNITS
 70
     0
  9
$AUPREC
 70
     0
  9
$MENU
  1
.
  9
$ELEVATION
 40
0.0
  9
$PELEVATION
 40
0.0
  9
$THICKNESS
 40
0.0
  9
$LIMCHECK
 70
     0
  9
$CHAMFERA
 40
0.0
  9
$CHAMFERB
 40
0.0
  9
$CHAMFERC
 40
0.0
  9
$CHAMFERD
 40
0.0
  9
$SKPOLY
 70
     0
  9
$TDCREATE
 40
2454877.591493588
  9
$TDUCREATE
 40
2454877.258160255
  9
$TDUPDATE
 40
2459741.599752651
  9
$TDUUPDATE
 40
2459741.266419317
  9
$TDINDWG
 40
0.3133210648
  9
$TDUSRTIMER
 40
0.3133210648
  9
$USRTIMER
 70
     1
  9
$ANGBASE
 50
0.0
  9
$ANGDIR
 70
     0
  9
$PDMODE
 70
     0
  9
$PDSIZE
 40
0.0
  9
$PLINEWID
 40
0.0
  9
$SPLFRAME
 70
     0
  9
$SPLINETYPE
 70
     6
  9
$SPLINESEGS
 70
     8
  9
$HANDSEED
  5
634B
  9
$SURFTAB1
 70
     6
  9
$SURFTAB2
 70
     6
  9
$SURFTYPE
 70
     6
  9
$SURFU
 70
     6
  9
$SURFV
 70
     6
  9
$UCSBASE
  2

  9
$UCSNAME
  2

  9
$UCSORG
 10
0.0
 20
0.0
 30
0.0
  9
$UCSXDIR
 10
1.0
 20
0.0
 30
0.0
  9
$UCSYDIR
 10
0.0
 20
1.0
 30
0.0
  9
$UCSORTHOREF
  2

  9
$UCSORTHOVIEW
 70
     0
  9
$UCSORGTOP
 10
0.0
 20
0.0
 30
0.0
  9
$UCSORGBOTTOM
 10
0.0
 20
0.0
 30
0.0
  9
$UCSORGLEFT
 10
0.0
 20
0.0
 30
0.0
  9
$UCSORGRIGHT
 10
0.0
 20
0.0
 30
0.0
  9
$UCSORGFRONT
 10
0.0
 20
0.0
 30
0.0
  9
$UCSORGBACK
 10
0.0
 20
0.0
 30
0.0
  9
$PUCSBASE
  2

  9
$PUCSNAME
  2

  9
$PUCSORG
 10
0.0
 20
0.0
 30
0.0
  9
$PUCSXDIR
 10
1.0
 20
0.0
 30
0.0
  9
$PUCSYDIR
 10
0.0
 20
1.0
 30
0.0
  9
$PUCSORTHOREF
  2

  9
$PUCSORTHOVIEW
 70
     0
  9
$PUCSORGTOP
 10
0.0
 20
0.0
 30
0.0
  9
$PUCSORGBOTTOM
 10
0.0
 20
0.0
 30
0.0
  9
$PUCSORGLEFT
 10
0.0
 20
0.0
 30
0.0
  9
$PUCSORGRIGHT
 10
0.0
 20
0.0
 30
0.0
  9
$PUCSORGFRONT
 10
0.0
 20
0.0
 30
0.0
  9
$PUCSORGBACK
 10
0.0
 20
0.0
 30
0.0
  9
$USERI1
 70
     0
  9
$USERI2
 70
     0
  9
$USERI3
 70
     0
  9
$USERI4
 70
     0
  9
$USERI5
 70
     0
  9
$USERR1
 40
0.0
  9
$USERR2
 40
0.0
  9
$USERR3
 40
0.0
  9
$USERR4
 40
0.0
  9
$USERR5
 40
2.5
  9
$WORLDVIEW
 70
     1
  9
$SHADEDGE
 70
     3
  9
$SHADEDIF
 70
    70
  9
$TILEMODE
 70
     1
  9
$MAXACTVP
 70
    64
  9
$PINSBASE
 10
0.0
 20
0.0
 30
0.0
  9
$PLIMCHECK
 70
     0
  9
$PEXTMIN
 10
0.0
 20
0.0
 30
0.0
  9
$PEXTMAX
 10
0.0
 20
0.0
 30
0.0
  9
$PLIMMIN
 10
0.0
 20
0.0
  9
$PLIMMAX
 10
12.0
 20
9.0
  9
$UNITMODE
 70
     0
  9
$VISRETAIN
 70
     1
  9
$PLINEGEN
 70
     0
  9
$PSLTSCALE
 70
     1
  9
$TREEDEPTH
 70
  3020
  9
$CMLSTYLE
  2
Standard
  9
$CMLJUST
 70
     0
  9
$CMLSCALE
 40
20.0
  9
$PROXYGRAPHICS
 70
     1
  9
$MEASUREMENT
 70
     1
  9
$CELWEIGHT
370
    -1
  9
$ENDCAPS
280
     0
  9
$JOINSTYLE
280
     0
  9
$LWDISPLAY
290
     0
  9
$INSUNITS
 70
     4
  9
$HYPERLINKBASE
  1

  9
$STYLESHEET
  1
monochrome.ctb
  9
$XEDIT
290
     1
  9
$CEPSNTYPE
380
     0
  9
$PSTYLEMODE
290
     1
  9
$FINGERPRINTGUID
  2
{FDEAD578-A652-11D2-9A35-0060089B3A3F}
  9
$VERSIONGUID
  2
{4B27C45B-EE04-44C6-B123-DEB4978FC2BF}
  9
$EXTNAMES
290
     1
  9
$PSVPSCALE
 40
0.0
  9
$OLESTARTUP
290
     0
  9
$SORTENTS
280
   127
  9
$INDEXCTL
280
     0
  9
$HIDETEXT
280
     1
  9
$XCLIPFRAME
290
     0
  9
$HALOGAP
280
     0
  9
$OBSCOLOR
 70
   257
  9
$OBSLTYPE
280
     0
  9
$INTERSECTIONDISPLAY
280
     0
  9
$INTERSECTIONCOLOR
 70
   257
  9
$DIMASSOC
280
     2
  9
$PROJECTNAME
  1

  0
ENDSEC
  0
SECTION
  2
CLASSES
  0
CLASS
  1
ACDBDICTIONARYWDFLT
  2
AcDbDictionaryWithDefault
  3
ObjectDBX Classes
 90
        0
 91
        1
280
     0
281
     0
  0
CLASS
  1
ACDBPLACEHOLDER
  2
AcDbPlaceHolder
  3
ObjectDBX Classes
 90
        0
 91
        1
280
     0
281
     0
  0
CLASS
  1
LAYOUT
  2
AcDbLayout
  3
ObjectDBX Classes
 90
        0
 91
        3
280
     0
281
     0
  0
CLASS
  1
DICTIONARYVAR
  2
AcDbDictionaryVar
  3
ObjectDBX Classes
 90
        0
 91
        6
280
     0
281
     0
  0
CLASS
  1
MATERIAL
  2
AcDbMaterial
  3
ObjectDBX Classes
 90
     1024
 91
        3
280
     0
281
     0
  0
CLASS
  1
DIMASSOC
  2
AcDbDimAssoc
  3
"AcDbDimAssoc|Product Desc:     AcDim ARX App For Dimension|Company:          Autodesk, Inc.|WEB Address:      www.autodesk.com"
 90
        0
 91
       58
280
     0
281
     0
  0
CLASS
  1
SORTENTSTABLE
  2
AcDbSortentsTable
  3
ObjectDBX Classes
 90
        0
 91
        1
280
     0
281
     0
  0
CLASS
  1
VISUALSTYLE
  2
AcDbVisualStyle
  3
ObjectDBX Classes
 90
     4095
 91
       26
280
     0
281
     0
  0
CLASS
  1
TABLESTYLE
  2
AcDbTableStyle
  3
ObjectDBX Classes
 90
     4095
 91
        1
280
     0
281
     0
  0
CLASS
  1
SCALE
  2
AcDbScale
  3
ObjectDBX Classes
 90
     1153
 91
       17
280
     0
281
     0
  0
CLASS
  1
MLEADERSTYLE
  2
AcDbMLeaderStyle
  3
ACDB_MLEADERSTYLE_CLASS
 90
     4095
 91
        1
280
     0
281
     0
  0
CLASS
  1
VLO-VL
  2
vlo_VL
  3
VL|AutoLISP based application
 90
      129
 91
        3
280
     0
281
     0
  0
CLASS
  1
CELLSTYLEMAP
  2
AcDbCellStyleMap
  3
ObjectDBX Classes
 90
     1152
 91
        1
280
     0
281
     0
  0
ENDSEC
  0
SECTION
  2
TABLES
  0
TABLE
  2
VPORT
  5
8
102
{ACAD_XDICTIONARY
360
1990
102
}
330
0
100
AcDbSymbolTable
 70
     1
  0
VPORT
  5
191F
330
8
100
AcDbSymbolTableRecord
100
AcDbViewportTableRecord
  2
*Active
 70
     0
 10
0.0
 20
0.0
 11
1.0
 21
1.0
 12
187.5093687035172
 22
132.5873007391157
 13
0.0
 23
0.0
 14
10.0
 24
10.0
 15
10.0
 25
10.0
 16
0.0
 26
0.0
 36
1.0
 17
0.0
 27
0.0
 37
0.0
 40
267.1647034606179
 41
2.196296296296296
 42
50.0
 43
0.0
 44
0.0
 50
0.0
 51
0.0
 71
     0
 72
  1000
 73
     1
 74
     3
 75
     0
 76
     0
 77
     0
 78
     0
281
     0
 65
     1
110
0.0
120
0.0
130
0.0
111
1.0
121
0.0
131
0.0
112
0.0
122
1.0
132
0.0
 79
     0
146
0.0
1001
ACAD_NAV_VCDISPLAY
1070
     3
  0
ENDTAB
  0
TABLE
  2
LTYPE
  5
5
330
0
100
AcDbSymbolTable
 70
     6
  0
LTYPE
  5
14
330
5
100
AcDbSymbolTableRecord
100
AcDbLinetypeTableRecord
  2
ByBlock
 70
     0
  3

 72
    65
 73
     0
 40
0.0
  0
LTYPE
  5
15
330
5
100
AcDbSymbolTableRecord
100
AcDbLinetypeTableRecord
  2
ByLayer
 70
     0
  3

 72
    65
 73
     0
 40
0.0
  0
LTYPE
  5
16
330
5
100
AcDbSymbolTableRecord
100
AcDbLinetypeTableRecord
  2
Continuous
 70
     0
  3
Solid line
 72
    65
 73
     0
 40
0.0
  0
LTYPE
  5
539
330
5
100
AcDbSymbolTableRecord
100
AcDbLinetypeTableRecord
  2
CENTER2
 70
     0
  3
Center (.5x) ___ _ ___ _ ___ _ ___ _ ___ _ ___
 72
    65
 73
     4
 40
28.575
 49
19.05
 74
     0
 49
-3.174999999999999
 74
     0
 49
3.174999999999999
 74
     0
 49
-3.174999999999999
 74
     0
  0
LTYPE
  5
53A
330
5
100
AcDbSymbolTableRecord
100
AcDbLinetypeTableRecord
  2
PHANTOM
 70
     0
  3
_____ _ _ _____ _ _ _____ _ _ _____
 72
    65
 73
     6
 40
0.8
 49
0.45
 74
     0
 49
-0.05
 74
     0
 49
0.1
 74
     0
 49
-0.05
 74
     0
 49
0.1
 74
     0
 49
-0.05
 74
     0
  0
LTYPE
  5
15B8
330
5
100
AcDbSymbolTableRecord
100
AcDbLinetypeTableRecord
  2
DASHED2
 70
     0
  3
Dashed (.5x) _ _ _ _ _ _ _ _ _ _ _ _ _ _ _ _ _
 72
    65
 73
     2
 40
9.524999999999998
 49
6.349999999999999
 74
     0
 49
-3.174999999999999
 74
     0
  0
LTYPE
  5
15B9
330
5
100
AcDbSymbolTableRecord
100
AcDbLinetypeTableRecord
  2
CENTER
 70
     0
  3
____ _ ____ _ ____ _ ____ _ ____ _ ____ _ ____
 72
    65
 73
     4
 40
0.6
 49
0.375
 74
     0
 49
-0.075
 74
     0
 49
0.075
 74
     0
 49
-0.075
 74
     0
  0
LTYPE
  5
4704
330
5
100
AcDbSymbolTableRecord
100
AcDbLinetypeTableRecord
  2
DIVIDE
 70
     0
  3
Divide ____ . . ____ . . ____ . . ____ . . ____
 72
    65
 73
     6
 40
31.75
 49
12.7
 74
     0
 49
-6.349999999999999
 74
     0
 49
0.0
 74
     0
 49
-6.349999999999999
 74
     0
 49
0.0
 74
     0
 49
-6.349999999999999
 74
     0
  0
ENDTAB
  0
TABLE
  2
LAYER
  5
2
102
{ACAD_XDICTIONARY
360
55C
102
}
330
0
100
AcDbSymbolTable
 70
    12
  0
LAYER
  5
10
102
{ACAD_XDICTIONARY
360
1BA1
102
}
330
2
100
AcDbSymbolTableRecord
100
AcDbLayerTableRecord
  2
0
 70
     0
 62
     7
  6
Continuous
370
    -3
390
F
  0
LAYER
  5
53B
102
{ACAD_XDICTIONARY
360
1BA3
102
}
330
2
100
AcDbSymbolTableRecord
100
AcDbLayerTableRecord
  2
轮廓线层
 70
     0
 62
     3
  6
Continuous
370
    -3
390
F
  0
LAYER
  5
53E
102
{ACAD_XDICTIONARY
360
1BA5
102
}
330
2
100
AcDbSymbolTableRecord
100
AcDbLayerTableRecord
  2
细实线层
 70
     0
 62
     7
  6
Continuous
370
    -3
390
F
  0
LAYER
  5
541
102
{ACAD_XDICTIONARY
360
1BA7
102
}
330
2
100
AcDbSymbolTableRecord
100
AcDbLayerTableRecord
  2
签字
 70
     0
 62
   252
  6
Continuous
290
     0
370
    -3
390
F
  0
LAYER
  5
544
102
{ACAD_XDICTIONARY
360
1BA9
102
}
330
2
100
AcDbSymbolTableRecord
100
AcDbLayerTableRecord
  2
尺寸标注层
 70
     0
 62
     4
  6
Continuous
370
    -3
390
F
  0
LAYER
  5
547
102
{ACAD_XDICTIONARY
360
1BAB
102
}
330
2
100
AcDbSymbolTableRecord
100
AcDbLayerTableRecord
  2
中心线层
 70
     0
 62
     1
  6
CENTER2
370
    -3
390
F
  0
LAYER
  5
54A
102
{ACAD_XDICTIONARY
360
1BAD
102
}
330
2
100
AcDbSymbolTableRecord
100
AcDbLayerTableRecord
  2
文字标准层
 70
     0
 62
     4
  6
Continuous
370
    -3
390
F
1001
RAK
1000
{ACET-LAYISO
1070
     0
1070
    45
1000
Continuous
1071
       -3
1071
        1
1005
F
1000
ACET-LAYISO}
  0
LAYER
  5
15BA
102
{ACAD_XDICTIONARY
360
1BAF
102
}
330
2
100
AcDbSymbolTableRecord
100
AcDbLayerTableRecord
  2
虚线层
 70
     0
 62
     2
  6
DASHED2
370
    -3
390
F
  0
LAYER
  5
15BD
102
{ACAD_XDICTIONARY
360
1BB1
102
}
330
2
100
AcDbSymbolTableRecord
100
AcDbLayerTableRecord
  2
细点划线层
 70
     0
 62
     7
  6
Continuous
370
    -3
390
F
  0
LAYER
  5
1761
102
{ACAD_XDICTIONARY
360
1BB3
102
}
330
2
100
AcDbSymbolTableRecord
100
AcDbLayerTableRecord
  2
设变层
 70
     0
 62
    32
  6
Continuous
370
    -3
390
F
  0
LAYER
  5
1778
102
{ACAD_XDICTIONARY
360
1BB5
102
}
330
2
100
AcDbSymbolTableRecord
100
AcDbLayerTableRecord
  2
引出线层
 70
     0
 62
     2
  6
Continuous
370
    -3
390
F
  0
LAYER
  5
2199
330
2
100
AcDbSymbolTableRecord
100
AcDbLayerTableRecord
  2
Defpoints
 70
     0
 62
     7
  6
Continuous
290
     0
370
    -3
390
F
  0
ENDTAB
  0
TABLE
  2
STYLE
  5
3
330
0
100
AcDbSymbolTable
 70
     5
  0
STYLE
  5
11
330
3
100
AcDbSymbolTableRecord
100
AcDbTextStyleTableRecord
  2
Standard
 70
     0
 40
0.0
 41
1.0
 50
0.0
 71
     0
 42
2.5
  3
txt
  4

  0
STYLE
  5
54E
330
3
100
AcDbSymbolTableRecord
100
AcDbTextStyleTableRecord
  2
宋体
 70
     0
 40
0.0
 41
1.0
 50
0.0
 71
     0
 42
0.2
  3

  4

1001
ACAD
1000
SimSun
1071
    34306
  0
STYLE
  5
54F
330
3
100
AcDbSymbolTableRecord
100
AcDbTextStyleTableRecord
  2
黑体
 70
     0
 40
0.0
 41
1.0
 50
0.0
 71
     0
 42
0.2
  3
simhei_0.ttf
  4

1001
ACAD
1000
SimHei
1071
    34306
  0
STYLE
  5
1C7D
330
3
100
AcDbSymbolTableRecord
100
AcDbTextStyleTableRecord
  2
尺寸标注用文字
 70
     0
 40
0.0
 41
0.9
 50
0.0
 71
     0
 42
2.0
  3
txt.shx
  4

  0
STYLE
  5
4D7D
330
3
100
AcDbSymbolTableRecord
100
AcDbTextStyleTableRecord
  2
黑体字
 70
     0
 40
0.0
 41
1.0
 50
0.0
 71
     0
 42
0.2
  3
simhei_0.ttf
  4

1001
ACAD
1000
SimHei
1071
    34306
  0
ENDTAB
  0
TABLE
  2
VIEW
  5
6
330
0
100
AcDbSymbolTable
 70
     0
  0
ENDTAB
  0
TABLE
  2
UCS
  5
7
330
0
100
AcDbSymbolTable
 70
     0
  0
ENDTAB
  0
TABLE
  2
APPID
  5
9
330
0
100
AcDbSymbolTable
 70
    13
  0
APPID
  5
12
330
9
100
AcDbSymbolTableRecord
100
AcDbRegAppTableRecord
  2
ACAD
 70
     0
  0
APPID
  5
558
330
9
100
AcDbSymbolTableRecord
100
AcDbRegAppTableRecord
  2
RAK
 70
     0
  0
APPID
  5
15CD
330
9
100
AcDbSymbolTableRecord
100
AcDbRegAppTableRecord
  2
ACAD_EXEMPT_FROM_CAD_STANDARDS
 70
     0
  0
APPID
  5
15CE
330
9
100
AcDbSymbolTableRecord
100
AcDbRegAppTableRecord
  2
ACAD_PSEXT
 70
     0
  0
APPID
  5
15CF
330
9
100
AcDbSymbolTableRecord
100
AcDbRegAppTableRecord
  2
DCO15
 70
     0
  0
APPID
  5
1A78
330
9
100
AcDbSymbolTableRecord
100
AcDbRegAppTableRecord
  2
AcAecLayerStandard
 70
     0
  0
APPID
  5
1C69
330
9
100
AcDbSymbolTableRecord
100
AcDbRegAppTableRecord
  2
ACAD_MLEADERVER
 70
     0
  0
APPID
  5
2422
330
9
100
AcDbSymbolTableRecord
100
AcDbRegAppTableRecord
  2
ACAD_DSTYLE_DIMJAG
 70
     0
  0
APPID
  5
2423
330
9
100
AcDbSymbolTableRecord
100
AcDbRegAppTableRecord
  2
ACAD_DSTYLE_DIMTALN
 70
     0
  0
APPID
  5
2834
330
9
100
AcDbSymbolTableRecord
100
AcDbRegAppTableRecord
  2
ACAD_DSTYLE_DIMRADIAL_EXTENSION
 70
     0
  0
APPID
  5
3C0C
330
9
100
AcDbSymbolTableRecord
100
AcDbRegAppTableRecord
  2
ACAD_NAV_VCDISPLAY
 70
     0
  0
APPID
  5
4737
330
9
100
AcDbSymbolTableRecord
100
AcDbRegAppTableRecord
  2
GradientColor1ACI
 70
     0
  0
APPID
  5
4738
330
9
100
AcDbSymbolTableRecord
100
AcDbRegAppTableRecord
  2
GradientColor2ACI
 70
     0
  0
ENDTAB
  0
TABLE
  2
DIMSTYLE
  5
A
330
0
100
AcDbSymbolTable
 70
    11
100
AcDbDimStyleTable
 71
     6
340
556
340
553
340
552
340
557
340
1779
340
2780
  0
DIMSTYLE
105
552
330
A
100
AcDbSymbolTableRecord
100
AcDbDimStyleTableRecord
  2
4比1-S
 70
     0
 41
1.199999999999999
 42
0.5
 43
5.0
 44
0.5
 73
     0
 74
     0
 77
     1
 78
     8
 79
     2
140
2.0
141
0.0
144
0.25
147
0.5
172
     1
179
     1
271
     2
272
     2
288
     1
340
1C7D
1001
ACAD_DSTYLE_DIMJAG
1070
   388
1040
1.5
1001
ACAD_DSTYLE_DIMTALN
1070
   392
1070
     0
  0
DIMSTYLE
105
553
102
{ACAD_REACTORS
330
4A00
330
4A1C
330
4E21
330
4E39
102
}
330
A
100
AcDbSymbolTableRecord
100
AcDbDimStyleTableRecord
  2
1比1-S
 70
     0
 41
1.5
 42
0.5
 43
5.0
 44
0.5
 73
     0
 74
     0
 77
     1
 78
     8
 79
     2
140
2.0
141
0.0
147
0.5
172
     1
179
     1
271
     2
272
     2
288
     1
340
1C7D
1001
ACAD_DSTYLE_DIMJAG
1070
   388
1040
1.5
1001
ACAD_DSTYLE_DIMTALN
1070
   392
1070
     0
  0
DIMSTYLE
105
554
330
A
100
AcDbSymbolTableRecord
100
AcDbDimStyleTableRecord
  2
2比1-S
 70
     0
 41
1.5
 42
0.5
 43
5.0
 44
0.5
 73
     0
 74
     0
 77
     1
 78
     8
 79
     2
140
2.0
141
0.0
144
0.5
147
0.5
172
     1
179
     2
271
     1
272
     1
288
     1
340
1C7D
1001
ACAD_DSTYLE_DIMJAG
1070
   388
1040
1.5
1001
ACAD_DSTYLE_DIMTALN
1070
   392
1070
     0
  0
DIMSTYLE
105
555
330
A
100
AcDbSymbolTableRecord
100
AcDbDimStyleTableRecord
  2
2比1-H
 70
     0
 41
1.5
 42
0.5
 43
5.0
 44
0.5
 73
     0
 77
     1
 78
     8
 79
     2
140
2.0
141
0.0
144
0.5
147
0.5
179
     2
271
     2
272
     2
288
     1
340
1C7D
1001
ACAD_DSTYLE_DIMJAG
1070
   388
1040
1.5
1001
ACAD_DSTYLE_DIMTALN
1070
   392
1070
     0
  0
DIMSTYLE
105
556
330
A
100
AcDbSymbolTableRecord
100
AcDbDimStyleTableRecord
  2
4比1-H
 70
     0
 41
1.5
 42
0.5
 43
5.0
 44
0.5
 73
     0
 77
     1
 78
     8
 79
     2
140
2.0
141
0.0
144
0.25
147
0.5
179
     1
271
     2
272
     2
340
1C7D
1001
ACAD_DSTYLE_DIMJAG
1070
   388
1040
1.5
1001
ACAD_DSTYLE_DIMTALN
1070
   392
1070
     0
  0
DIMSTYLE
105
557
330
A
100
AcDbSymbolTableRecord
100
AcDbDimStyleTableRecord
  2
5比1-S
 70
     0
 41
1.5
 42
0.5
 43
5.0
 44
0.5
 73
     0
 74
     0
 77
     1
 78
     8
140
2.0
141
0.0
144
0.2
147
0.5
172
     1
271
     1
272
     1
288
     1
340
1C7D
1001
ACAD_DSTYLE_DIMJAG
1070
   388
1040
1.5
1001
ACAD_DSTYLE_DIMTALN
1070
   392
1070
     0
  0
DIMSTYLE
105
15C9
330
A
100
AcDbSymbolTableRecord
100
AcDbDimStyleTableRecord
  2
5比1-H
 70
     0
 41
1.5
 42
0.5
 43
5.0
 44
0.5
 73
     0
 77
     1
 78
     8
140
2.0
141
0.0
144
0.2
147
0.5
271
     2
272
     2
288
     1
340
1C7D
1001
ACAD_DSTYLE_DIMJAG
1070
   388
1040
1.5
1001
ACAD_DSTYLE_DIMTALN
1070
   392
1070
     0
  0
DIMSTYLE
105
15CB
330
A
100
AcDbSymbolTableRecord
100
AcDbDimStyleTableRecord
  2
10比1-H
 70
     0
 41
1.5
 42
0.5
 43
5.0
 44
0.5
 73
     0
 77
     1
 78
     8
140
2.0
141
0.0
144
0.1
147
0.5
172
     1
271
     1
272
     1
288
     1
340
1C7D
1001
ACAD_DSTYLE_DIMJAG
1070
   388
1040
1.5
1001
ACAD_DSTYLE_DIMTALN
1070
   392
1070
     0
  0
DIMSTYLE
105
15CC
330
A
100
AcDbSymbolTableRecord
100
AcDbDimStyleTableRecord
  2
10比1-S
 70
     0
 41
1.5
 42
0.5
 43
5.0
 44
0.5
 73
     0
 74
     0
 77
     1
 78
     8
 79
     2
140
2.5
141
0.0
144
0.1
147
0.5
172
     1
179
     2
271
     2
272
     2
288
     1
340
1C7D
1001
ACAD_DSTYLE_DIMJAG
1070
   388
1040
1.5
1001
ACAD_DSTYLE_DIMTALN
1070
   392
1070
     0
  0
DIMSTYLE
105
1779
330
A
100
AcDbSymbolTableRecord
100
AcDbDimStyleTableRecord
  2
1比1-H
 70
     0
 41
1.5
 42
0.5
 43
5.0
 44
0.5
 73
     0
 77
     1
 78
     8
 79
     2
140
2.0
141
0.0
147
0.5
179
     1
271
     2
272
     2
288
     1
340
1C7D
1001
ACAD_DSTYLE_DIMJAG
1070
   388
1040
1.5
1001
ACAD_DSTYLE_DIMTALN
1070
   392
1070
     0
  0
DIMSTYLE
105
2780
330
A
100
AcDbSymbolTableRecord
100
AcDbDimStyleTableRecord
  2
Standard
 70
     0
340
11
  0
ENDTAB
  0
TABLE
  2
BLOCK_RECORD
  5
1
330
0
100
AcDbSymbolTable
 70
    63
  0
BLOCK_RECORD
  5
1F
102
{ACAD_XDICTIONARY
360
1D76
102
}
330
1
100
AcDbSymbolTableRecord
100
AcDbBlockTableRecord
  2
*Model_Space
340
22
  0
BLOCK_RECORD
  5
50
330
1
100
AcDbSymbolTableRecord
100
AcDbBlockTableRecord
  2
*Paper_Space
340
51
  0
BLOCK_RECORD
  5
55
330
1
100
AcDbSymbolTableRecord
100
AcDbBlockTableRecord
  2
*Paper_Space0
340
56
  0
BLOCK_RECORD
  5
3CE3
330
1
100
AcDbSymbolTableRecord
100
AcDbBlockTableRecord
  2
_CLOSED
340
0
  0
BLOCK_RECORD
  5
4775
330
1
100
AcDbSymbolTableRecord
100
AcDbBlockTableRecord
  2
*D2
340
0
  0
BLOCK_RECORD
  5
4791
330
1
100
AcDbSymbolTableRecord
100
AcDbBlockTableRecord
  2
*D3
340
0
  0
BLOCK_RECORD
  5
47AD
330
1
100
AcDbSymbolTableRecord
100
AcDbBlockTableRecord
  2
*D4
340
0
  0
BLOCK_RECORD
  5
47DD
330
1
100
AcDbSymbolTableRecord
100
AcDbBlockTableRecord
  2
*D5
340
0
  0
BLOCK_RECORD
  5
47F9
330
1
100
AcDbSymbolTableRecord
100
AcDbBlockTableRecord
  2
*D6
340
0
  0
BLOCK_RECORD
  5
4811
330
1
100
AcDbSymbolTableRecord
100
AcDbBlockTableRecord
  2
*D7
340
0
  0
BLOCK_RECORD
  5
482D
330
1
100
AcDbSymbolTableRecord
100
AcDbBlockTableRecord
  2
*D8
340
0
  0
BLOCK_RECORD
  5
4849
330
1
100
AcDbSymbolTableRecord
100
AcDbBlockTableRecord
  2
*D9
340
0
  0
BLOCK_RECORD
  5
4873
330
1
100
AcDbSymbolTableRecord
100
AcDbBlockTableRecord
  2
*D10
340
0
  0
BLOCK_RECORD
  5
48A1
330
1
100
AcDbSymbolTableRecord
100
AcDbBlockTableRecord
  2
*D11
340
0
  0
BLOCK_RECORD
  5
48D4
330
1
100
AcDbSymbolTableRecord
100
AcDbBlockTableRecord
  2
*D12
340
0
  0
BLOCK_RECORD
  5
4907
330
1
100
AcDbSymbolTableRecord
100
AcDbBlockTableRecord
  2
*D13
340
0
  0
BLOCK_RECORD
  5
4935
330
1
100
AcDbSymbolTableRecord
100
AcDbBlockTableRecord
  2
*D14
340
0
  0
BLOCK_RECORD
  5
4995
330
1
100
AcDbSymbolTableRecord
100
AcDbBlockTableRecord
  2
*D15
340
0
  0
BLOCK_RECORD
  5
49AD
330
1
100
AcDbSymbolTableRecord
100
AcDbBlockTableRecord
  2
*D16
340
0
  0
BLOCK_RECORD
  5
4A01
330
1
100
AcDbSymbolTableRecord
100
AcDbBlockTableRecord
  2
*D17
340
0
  0
BLOCK_RECORD
  5
4A1D
330
1
100
AcDbSymbolTableRecord
100
AcDbBlockTableRecord
  2
*D18
340
0
  0
BLOCK_RECORD
  5
4A4D
330
1
100
AcDbSymbolTableRecord
100
AcDbBlockTableRecord
  2
*D19
340
0
  0
BLOCK_RECORD
  5
4E12
330
1
100
AcDbSymbolTableRecord
100
AcDbBlockTableRecord
  2
_None
340
0
  0
BLOCK_RECORD
  5
4E22
330
1
100
AcDbSymbolTableRecord
100
AcDbBlockTableRecord
  2
*D21
340
0
  0
BLOCK_RECORD
  5
4E3A
330
1
100
AcDbSymbolTableRecord
100
AcDbBlockTableRecord
  2
*D22
340
0
  0
BLOCK_RECORD
  5
4EA2
330
1
100
AcDbSymbolTableRecord
100
AcDbBlockTableRecord
  2
*D23
340
0
  0
BLOCK_RECORD
  5
4EBE
330
1
100
AcDbSymbolTableRecord
100
AcDbBlockTableRecord
  2
*D24
340
0
  0
BLOCK_RECORD
  5
4F03
330
1
100
AcDbSymbolTableRecord
100
AcDbBlockTableRecord
  2
*D25
340
0
  0
BLOCK_RECORD
  5
4F28
330
1
100
AcDbSymbolTableRecord
100
AcDbBlockTableRecord
  2
*D26
340
0
  0
BLOCK_RECORD
  5
4F92
330
1
100
AcDbSymbolTableRecord
100
AcDbBlockTableRecord
  2
*D27
340
0
  0
BLOCK_RECORD
  5
4FD5
330
1
100
AcDbSymbolTableRecord
100
AcDbBlockTableRecord
  2
*D28
340
0
  0
BLOCK_RECORD
  5
4FF3
330
1
100
AcDbSymbolTableRecord
100
AcDbBlockTableRecord
  2
*D29
340
0
  0
BLOCK_RECORD
  5
500B
330
1
100
AcDbSymbolTableRecord
100
AcDbBlockTableRecord
  2
*D30
340
0
  0
BLOCK_RECORD
  5
5023
330
1
100
AcDbSymbolTableRecord
100
AcDbBlockTableRecord
  2
*D31
340
0
  0
BLOCK_RECORD
  5
503B
330
1
100
AcDbSymbolTableRecord
100
AcDbBlockTableRecord
  2
*D32
340
0
  0
BLOCK_RECORD
  5
506F
330
1
100
AcDbSymbolTableRecord
100
AcDbBlockTableRecord
  2
*D33
340
0
  0
BLOCK_RECORD
  5
50C7
330
1
100
AcDbSymbolTableRecord
100
AcDbBlockTableRecord
  2
*D34
340
0
  0
BLOCK_RECORD
  5
5104
330
1
100
AcDbSymbolTableRecord
100
AcDbBlockTableRecord
  2
*D35
340
0
  0
BLOCK_RECORD
  5
511C
330
1
100
AcDbSymbolTableRecord
100
AcDbBlockTableRecord
  2
*D36
340
0
  0
BLOCK_RECORD
  5
5134
330
1
100
AcDbSymbolTableRecord
100
AcDbBlockTableRecord
  2
*D37
340
0
  0
BLOCK_RECORD
  5
514C
330
1
100
AcDbSymbolTableRecord
100
AcDbBlockTableRecord
  2
*D38
340
0
  0
BLOCK_RECORD
  5
5164
330
1
100
AcDbSymbolTableRecord
100
AcDbBlockTableRecord
  2
*D39
340
0
  0
BLOCK_RECORD
  5
524B
330
1
100
AcDbSymbolTableRecord
100
AcDbBlockTableRecord
  2
*D40
340
0
  0
BLOCK_RECORD
  5
526E
330
1
100
AcDbSymbolTableRecord
100
AcDbBlockTableRecord
  2
*D41
340
0
  0
BLOCK_RECORD
  5
5280
330
1
100
AcDbSymbolTableRecord
100
AcDbBlockTableRecord
  2
*D42
340
0
  0
BLOCK_RECORD
  5
52E2
330
1
100
AcDbSymbolTableRecord
100
AcDbBlockTableRecord
  2
*D43
340
0
  0
BLOCK_RECORD
  5
530F
330
1
100
AcDbSymbolTableRecord
100
AcDbBlockTableRecord
  2
*D44
340
0
  0
BLOCK_RECORD
  5
533D
330
1
100
AcDbSymbolTableRecord
100
AcDbBlockTableRecord
  2
*D45
340
0
  0
BLOCK_RECORD
  5
536F
330
1
100
AcDbSymbolTableRecord
100
AcDbBlockTableRecord
  2
*D46
340
0
  0
BLOCK_RECORD
  5
5388
330
1
100
AcDbSymbolTableRecord
100
AcDbBlockTableRecord
  2
*D47
340
0
  0
BLOCK_RECORD
  5
5473
330
1
100
AcDbSymbolTableRecord
100
AcDbBlockTableRecord
  2
*D48
340
0
  0
BLOCK_RECORD
  5
5493
330
1
100
AcDbSymbolTableRecord
100
AcDbBlockTableRecord
  2
*D49
340
0
  0
BLOCK_RECORD
  5
54B4
330
1
100
AcDbSymbolTableRecord
100
AcDbBlockTableRecord
  2
*D50
340
0
  0
BLOCK_RECORD
  5
54CC
330
1
100
AcDbSymbolTableRecord
100
AcDbBlockTableRecord
  2
*D51
340
0
  0
BLOCK_RECORD
  5
5926
330
1
100
AcDbSymbolTableRecord
100
AcDbBlockTableRecord
  2
*D52
340
0
  0
BLOCK_RECORD
  5
597D
330
1
100
AcDbSymbolTableRecord
100
AcDbBlockTableRecord
  2
*D53
340
0
  0
BLOCK_RECORD
  5
59CF
330
1
100
AcDbSymbolTableRecord
100
AcDbBlockTableRecord
  2
*D54
340
0
  0
BLOCK_RECORD
  5
59EB
330
1
100
AcDbSymbolTableRecord
100
AcDbBlockTableRecord
  2
*D55
340
0
  0
BLOCK_RECORD
  5
5A03
330
1
100
AcDbSymbolTableRecord
100
AcDbBlockTableRecord
  2
*D56
340
0
  0
BLOCK_RECORD
  5
5A53
330
1
100
AcDbSymbolTableRecord
100
AcDbBlockTableRecord
  2
*D57
340
0
  0
BLOCK_RECORD
  5
5AD1
330
1
100
AcDbSymbolTableRecord
100
AcDbBlockTableRecord
  2
*D58
340
0
  0
BLOCK_RECORD
  5
5B48
330
1
100
AcDbSymbolTableRecord
100
AcDbBlockTableRecord
  2
*D59
340
0
  0
BLOCK_RECORD
  5
5B7A
330
1
100
AcDbSymbolTableRecord
100
AcDbBlockTableRecord
  2
*D60
340
0
  0
BLOCK_RECORD
  5
5BBD
330
1
100
AcDbSymbolTableRecord
100
AcDbBlockTableRecord
  2
*D61
340
0
  0
BLOCK_RECORD
  5
5BFB
330
1
100
AcDbSymbolTableRecord
100
AcDbBlockTableRecord
  2
*D62
340
0
  0
ENDTAB
  0
ENDSEC
  0
SECTION
  2
BLOCKS
  0
BLOCK
  5
20
330
1F
100
AcDbEntity
  8
0
100
AcDbBlockBegin
  2
*Model_Space
 70
     0
 10
0.0
 20
0.0
 30
0.0
  3
*Model_Space
  1

  0
ENDBLK
  5
21
330
1F
100
AcDbEntity
  8
0
100
AcDbBlockEnd
  0
BLOCK
  5
52
330
50
100
AcDbEntity
 67
     1
  8
0
100
AcDbBlockBegin
  2
*Paper_Space
 70
     0
 10
0.0
 20
0.0
 30
0.0
  3
*Paper_Space
  1

  0
ENDBLK
  5
53
330
50
100
AcDbEntity
 67
     1
  8
0
100
AcDbBlockEnd
  0
BLOCK
  5
57
330
55
100
AcDbEntity
 67
     1
  8
0
100
AcDbBlockBegin
  2
*Paper_Space0
 70
     0
 10
0.0
 20
0.0
 30
0.0
  3
*Paper_Space0
  1

  0
ENDBLK
  5
58
330
55
100
AcDbEntity
 67
     1
  8
0
100
AcDbBlockEnd
  0
BLOCK
  5
3CE4
330
3CE3
100
AcDbEntity
  8
0
100
AcDbBlockBegin
  2
_CLOSED
 70
     0
 10
0.0
 20
0.0
 30
0.0
  3
_CLOSED
  1

  0
LINE
  5
3CE5
330
3CE3
100
AcDbEntity
  8
0
  6
ByBlock
 62
     0
100
AcDbLine
 10
0.0
 20
0.0
 30
0.0
 11
-1.0
 21
0.1666666667
 31
0.0
  0
LINE
  5
3CE6
330
3CE3
100
AcDbEntity
  8
0
  6
ByBlock
 62
     0
100
AcDbLine
 10
-1.0
 20
0.1666666667
 30
0.0
 11
-1.0
 21
-0.1666666667
 31
0.0
  0
LINE
  5
3CE7
330
3CE3
100
AcDbEntity
  8
0
  6
ByBlock
 62
     0
100
AcDbLine
 10
-1.0
 20
-0.1666666667
 30
0.0
 11
0.0
 21
0.0
 31
0.0
  0
LINE
  5
3CE8
330
3CE3
100
AcDbEntity
  8
0
  6
ByBlock
 62
     0
100
AcDbLine
 10
-1.0
 20
0.0
 30
0.0
 11
0.0
 21
0.0
 31
0.0
  0
ENDBLK
  5
3CE9
330
3CE3
100
AcDbEntity
  8
0
  6
ByBlock
 62
     0
100
AcDbBlockEnd
  0
BLOCK
  5
4776
330
4775
100
AcDbEntity
  8
0
100
AcDbBlockBegin
  2
*D2
 70
     1
 10
0.0
 20
0.0
 30
0.0
  3
*D2
  1

  0
LINE
  5
4CC8
330
4775
100
AcDbEntity
  8
尺寸标注层
 62
     0
440
 16777216
370
    -2
100
AcDbLine
 10
125.1332634514844
 20
182.2561164928308
 30
0.0
 11
123.7382366305138
 21
181.74836825398
 31
0.0
  0
LINE
  5
4CC9
330
4775
100
AcDbEntity
  8
尺寸标注层
 62
     0
440
 16777216
370
    -2
100
AcDbLine
 10
125.4068795661474
 20
181.5043623962168
 30
0.0
 11
124.0118527451768
 21
180.996614157366
 31
0.0
  0
LINE
  5
4CCA
330
4775
100
AcDbEntity
  8
尺寸标注层
 62
     0
440
 16777216
370
    -2
100
AcDbLine
 10
123.6950527259037
 20
183.3289172568214
 30
0.0
 11
123.1820225109023
 21
184.7384561879955
 31
0.0
  0
LINE
  5
4CCB
330
4775
100
AcDbEntity
  8
尺寸标注层
 62
     0
440
 16777216
370
    -2
100
AcDbLine
 10
124.9947292705696
 20
179.7580852978589
 30
0.0
 11
126.9784461019084
 21
174.3078680973189
 31
0.0
  0
LINE
  5
4CCC
330
4775
100
AcDbEntity
  8
尺寸标注层
 62
     0
440
 16777216
370
    -2
100
AcDbLine
 10
124.2080829409052
 20
181.9193783256472
 30
0.0
 11
124.4816990555682
 21
181.1676242290331
 31
0.0
  0
SOLID
  5
4CCD
330
4775
100
AcDbEntity
  8
尺寸标注层
 62
     0
440
 16777216
100
AcDbTrace
 10
123.9299758810994
 20
183.4144222926549
 30
0.0
 11
123.460129570708
 21
183.2434122209878
 31
0.0
 12
124.2080829409052
 22
181.9193783256472
 32
0.0
 13
124.2080829409052
 23
181.9193783256472
 33
0.0
  0
SOLID
  5
4CCE
330
4775
100
AcDbEntity
  8
尺寸标注层
 62
     0
440
 16777216
100
AcDbTrace
 10
125.2296524257653
 20
179.8435903336925
 30
0.0
 11
124.7598061153739
 21
179.6725802620254
 31
0.0
 12
124.4816990555682
 22
181.1676242290331
 32
0.0
 13
124.4816990555682
 23
181.1676242290331
 33
0.0
  0
MTEXT
  5
4CCF
330
4775
100
AcDbEntity
  8
尺寸标注层
 62
     0
440
 16777216
100
AcDbMText
 10
127.6526417249139
 20
176.8412374470032
 30
0.0
 40
2.0
 41
0.0
 71
     5
 72
     1
  1
\A1;0.8
  7
尺寸标注用文字
 11
0.3420201433342842
 21
-0.9396926207827725
 31
0.0
 73
     1
 44
1.0
  0
POINT
  5
4CD0
330
4775
100
AcDbEntity
  8
Defpoints
 62
     0
440
 16777216
100
AcDbPoint
 10
125.6031097618758
 20
182.427126564498
 30
0.0
  0
POINT
  5
4CD1
330
4775
100
AcDbEntity
  8
Defpoints
 62
     0
440
 16777216
100
AcDbPoint
 10
125.8767258765388
 20
181.6753724678839
 30
0.0
  0
POINT
  5
4CD2
330
4775
100
AcDbEntity
  8
Defpoints
 62
     0
440
 16777216
100
AcDbPoint
 10
124.4816990555682
 20
181.1676242290331
 30
0.0
  0
ENDBLK
  5
4777
330
4775
100
AcDbEntity
  8
0
100
AcDbBlockEnd
  0
BLOCK
  5
4792
330
4791
100
AcDbEntity
  8
0
100
AcDbBlockBegin
  2
*D3
 70
     1
 10
0.0
 20
0.0
 30
0.0
  3
*D3
  1

  0
LINE
  5
4CD3
330
4791
100
AcDbEntity
  8
尺寸标注层
 62
     0
440
 16777216
370
    -2
100
AcDbLine
 10
128.4655638993189
 20
129.0940390858292
 30
0.0
 11
129.0559792039836
 21
129.3089326825925
 31
0.0
  0
LINE
  5
4CD4
330
4791
100
AcDbEntity
  8
尺寸标注层
 62
     0
440
 16777216
370
    -2
100
AcDbLine
 10
128.7391800139883
 20
128.3422849892115
 30
0.0
 11
129.329595318653
 21
128.5571785859747
 31
0.0
  0
LINE
  5
4CD5
330
4791
100
AcDbEntity
  8
尺寸标注层
 62
     0
440
 16777216
370
    -2
100
AcDbLine
 10
128.0731026785834
 20
130.5474615420936
 30
0.0
 11
127.5600724635736
 21
131.9570004732647
 31
0.0
  0
LINE
  5
4CD6
330
4791
100
AcDbEntity
  8
尺寸标注层
 62
     0
440
 16777216
370
    -2
100
AcDbLine
 10
129.3727792232725
 20
126.9766295831337
 30
0.0
 11
131.3564960546439
 21
121.5264123826055
 31
0.0
  0
LINE
  5
4CD7
330
4791
100
AcDbEntity
  8
尺寸标注层
 62
     0
440
 16777216
370
    -2
100
AcDbLine
 10
128.5861328935933
 20
129.1379226109225
 30
0.0
 11
128.8597490082626
 21
128.3861685143048
 31
0.0
  0
SOLID
  5
4CD8
330
4791
100
AcDbEntity
  8
尺寸标注层
 62
     0
440
 16777216
100
AcDbTrace
 10
128.3080258337786
 20
130.6329665779286
 30
0.0
 11
127.8381795233882
 21
130.4619565062586
 31
0.0
 12
128.5861328935933
 22
129.1379226109225
 32
0.0
 13
128.5861328935933
 23
129.1379226109225
 33
0.0
  0
SOLID
  5
4CD9
330
4791
100
AcDbEntity
  8
尺寸标注层
 62
     0
440
 16777216
100
AcDbTrace
 10
129.6077023784677
 20
127.0621346189687
 30
0.0
 11
129.1378560680773
 21
126.8911245472988
 31
0.0
 12
128.8597490082626
 22
128.3861685143048
 32
0.0
 13
128.8597490082626
 23
128.3861685143048
 33
0.0
  0
MTEXT
  5
4CDA
330
4791
100
AcDbEntity
  8
尺寸标注层
 62
     0
440
 16777216
100
AcDbMText
 10
132.0306916776342
 20
124.0597817322939
 30
0.0
 40
2.0
 41
0.0
 71
     5
 72
     1
  1
\A1;0.8
  7
尺寸标注用文字
 11
0.3420201433398919
 21
-0.9396926207807315
 31
0.0
 73
     1
 44
1.0
  0
POINT
  5
4CDB
330
4791
100
AcDbEntity
  8
Defpoints
 62
     0
440
 16777216
100
AcDbPoint
 10
127.9957175889285
 20
128.9230290141592
 30
0.0
  0
POINT
  5
4CDC
330
4791
100
AcDbEntity
  8
Defpoints
 62
     0
440
 16777216
100
AcDbPoint
 10
128.2693337035979
 20
128.1712749175415
 30
0.0
  0
POINT
  5
4CDD
330
4791
100
AcDbEntity
  8
Defpoints
 62
     0
440
 16777216
100
AcDbPoint
 10
128.8597490082626
 20
128.3861685143048
 30
0.0
  0
ENDBLK
  5
4793
330
4791
100
AcDbEntity
  8
0
100
AcDbBlockEnd
  0
BLOCK
  5
47AE
330
47AD
100
AcDbEntity
  8
0
100
AcDbBlockBegin
  2
*D4
 70
     1
 10
0.0
 20
0.0
 30
0.0
  3
*D4
  1

  0
LINE
  5
4CDE
330
47AD
100
AcDbEntity
  8
尺寸标注层
 62
     0
440
 16777216
370
    -2
100
AcDbLine
 10
128.41170035307
 20
194.931098091398
 30
0.0
 11
148.8713320040865
 21
194.931098091398
 31
0.0
  0
LINE
  5
4CDF
330
47AD
100
AcDbEntity
  8
尺寸标注层
 62
     0
440
 16777216
370
    -2
100
AcDbLine
 10
120.9414818775758
 20
186.931098091298
 30
0.0
 11
148.8713320040865
 21
186.931098091298
 31
0.0
  0
LINE
  5
4CE0
330
47AD
100
AcDbEntity
  8
尺寸标注层
 62
     0
440
 16777216
370
    -2
100
AcDbLine
 10
148.3713320040866
 20
193.431098091398
 30
0.0
 11
148.3713320040865
 21
188.431098091298
 31
0.0
  0
LINE
  5
4CE1
330
47AD
100
AcDbEntity
  8
尺寸标注层
 62
     0
440
 16777216
370
    -2
100
AcDbLine
 10
148.3713320040865
 20
186.931098091298
 30
0.0
 11
148.3713320040865
 21
176.031098091298
 31
0.0
  0
SOLID
  5
4CE2
330
47AD
100
AcDbEntity
  8
尺寸标注层
 62
     0
440
 16777216
100
AcDbTrace
 10
148.1213320040866
 20
193.431098091398
 30
0.0
 11
148.6213320040866
 21
193.431098091398
 31
0.0
 12
148.3713320040866
 22
194.931098091398
 32
0.0
 13
148.3713320040866
 23
194.931098091398
 33
0.0
  0
SOLID
  5
4CE3
330
47AD
100
AcDbEntity
  8
尺寸标注层
 62
     0
440
 16777216
100
AcDbTrace
 10
148.1213320040865
 20
188.431098091298
 30
0.0
 11
148.6213320040865
 21
188.431098091298
 31
0.0
 12
148.3713320040865
 22
186.931098091298
 32
0.0
 13
148.3713320040865
 23
186.931098091298
 33
0.0
  0
MTEXT
  5
4CE4
330
47AD
100
AcDbEntity
  8
尺寸标注层
 62
     0
440
 16777216
100
AcDbMText
 10
146.8713320040865
 20
180.731098091298
 30
0.0
 40
2.0
 41
0.0
 71
     5
 72
     1
  1
\A1;8%%P0.05
  7
尺寸标注用文字
 11
0.0000000000000001
 21
1.0
 31
0.0
 73
     1
 44
1.0
  0
POINT
  5
4CE5
330
47AD
100
AcDbEntity
  8
Defpoints
 62
     0
440
 16777216
100
AcDbPoint
 10
127.91170035307
 20
194.931098091398
 30
0.0
  0
POINT
  5
4CE6
330
47AD
100
AcDbEntity
  8
Defpoints
 62
     0
440
 16777216
100
AcDbPoint
 10
120.4414818775758
 20
186.931098091298
 30
0.0
  0
POINT
  5
4CE7
330
47AD
100
AcDbEntity
  8
Defpoints
 62
     0
440
 16777216
100
AcDbPoint
 10
148.3713320040865
 20
186.931098091298
 30
0.0
  0
ENDBLK
  5
47AF
330
47AD
100
AcDbEntity
  8
0
100
AcDbBlockEnd
  0
BLOCK
  5
47DE
330
47DD
100
AcDbEntity
  8
0
100
AcDbBlockBegin
  2
*D5
 70
     1
 10
0.0
 20
0.0
 30
0.0
  3
*D5
  1

  0
LINE
  5
4CE8
330
47DD
100
AcDbEntity
  8
尺寸标注层
 62
     0
440
 16777216
370
    -2
100
AcDbLine
 10
137.1485944366854
 20
174.6415506287429
 30
0.0
 11
137.6625439458694
 21
173.229485928998
 31
0.0
  0
LINE
  5
4CE9
330
47DD
100
AcDbEntity
  8
尺寸标注层
 62
     0
440
 16777216
370
    -2
100
AcDbLine
 10
136.3968403382499
 20
174.3679345189514
 30
0.0
 11
136.9107898474338
 21
172.9558698192066
 31
0.0
  0
LINE
  5
4CEA
330
47DD
100
AcDbEntity
  8
尺寸标注层
 62
     0
440
 16777216
370
    -2
100
AcDbLine
 10
138.901072811766
 20
174.2123624463392
 30
0.0
 11
140.3106117462754
 21
174.7253926521773
 31
0.0
  0
LINE
  5
4CEB
330
47DD
100
AcDbEntity
  8
尺寸标注层
 62
     0
440
 16777216
370
    -2
100
AcDbLine
 10
135.3302408443118
 20
172.9126859248717
 30
0.0
 11
129.8800236308756
 21
170.9289691289644
 31
0.0
  0
LINE
  5
4CEC
330
47DD
100
AcDbEntity
  8
尺寸标注层
 62
     0
440
 16777216
370
    -2
100
AcDbLine
 10
137.4915338772567
 20
173.6993322405012
 30
0.0
 11
136.7397797788211
 21
173.4257161307097
 31
0.0
  0
SOLID
  5
4CED
330
47DD
100
AcDbEntity
  8
尺寸标注层
 62
     0
440
 16777216
100
AcDbTrace
 10
138.8155677774597
 20
174.4472856020908
 30
0.0
 11
138.9865778460724
 21
173.9774392905876
 31
0.0
 12
137.4915338772567
 22
173.6993322405012
 32
0.0
 13
137.4915338772567
 23
173.6993322405012
 33
0.0
  0
SOLID
  5
4CEE
330
47DD
100
AcDbEntity
  8
尺寸标注层
 62
     0
440
 16777216
100
AcDbTrace
 10
135.2447358100055
 20
173.1476090806232
 30
0.0
 11
135.4157458786181
 21
172.6777627691201
 31
0.0
 12
136.7397797788211
 22
173.4257161307097
 32
0.0
 13
136.7397797788211
 23
173.4257161307097
 33
0.0
  0
MTEXT
  5
4CEF
330
47DD
100
AcDbEntity
  8
尺寸标注层
 62
     0
440
 16777216
100
AcDbMText
 10
131.387332564501
 20
173.0738513585084
 30
0.0
 40
2.0
 41
0.0
 71
     5
 72
     1
  1
\A1;0.8
  7
尺寸标注用文字
 11
0.9396926230062325
 21
0.3420201372253785
 31
0.0
 73
     1
 44
1.0
  0
POINT
  5
4CF0
330
47DD
100
AcDbEntity
  8
Defpoints
 62
     0
440
 16777216
100
AcDbPoint
 10
136.9775843680727
 20
175.111396940246
 30
0.0
  0
POINT
  5
4CF1
330
47DD
100
AcDbEntity
  8
Defpoints
 62
     0
440
 16777216
100
AcDbPoint
 10
136.2258302696372
 20
174.8377808304546
 30
0.0
  0
POINT
  5
4CF2
330
47DD
100
AcDbEntity
  8
Defpoints
 62
     0
440
 16777216
100
AcDbPoint
 10
136.7397797788211
 20
173.4257161307097
 30
0.0
  0
ENDBLK
  5
47DF
330
47DD
100
AcDbEntity
  8
0
100
AcDbBlockEnd
  0
BLOCK
  5
47FA
330
47F9
100
AcDbEntity
  8
0
100
AcDbBlockBegin
  2
*D6
 70
     1
 10
0.0
 20
0.0
 30
0.0
  3
*D6
  1

  0
LINE
  5
4CF3
330
47F9
100
AcDbEntity
  8
尺寸标注层
 62
     0
440
 16777216
370
    -2
100
AcDbLine
 10
105.9455070447039
 20
163.5934029985222
 30
0.0
 11
107.3550459792127
 21
164.1064332043618
 31
0.0
  0
LINE
  5
4CF4
330
47F9
100
AcDbEntity
  8
尺寸标注层
 62
     0
440
 16777216
370
    -2
100
AcDbLine
 10
102.3746750773034
 20
162.29372647707
 30
0.0
 11
96.92445786386924
 21
160.310009681157
 31
0.0
  0
LINE
  5
4CF5
330
47F9
100
AcDbEntity
  8
尺寸标注层
 62
     0
440
 16777216
370
    -2
100
AcDbLine
 10
104.5359681101951
 20
163.0803727926827
 30
0.0
 11
103.7842140118122
 21
162.8067566829095
 31
0.0
  0
SOLID
  5
4CF6
330
47F9
100
AcDbEntity
  8
尺寸标注层
 62
     0
440
 16777216
100
AcDbTrace
 10
105.8600020103973
 20
163.8283261542737
 30
0.0
 11
106.0310120790105
 21
163.3584798427708
 31
0.0
 12
104.5359681101951
 22
163.0803727926827
 32
0.0
 13
104.5359681101951
 23
163.0803727926827
 33
0.0
  0
SOLID
  5
4CF7
330
47F9
100
AcDbEntity
  8
尺寸标注层
 62
     0
440
 16777216
100
AcDbTrace
 10
102.2891700429968
 20
162.5286496328214
 30
0.0
 11
102.46018011161
 21
162.0588033213185
 31
0.0
 12
103.7842140118122
 22
162.8067566829095
 32
0.0
 13
103.7842140118122
 23
162.8067566829095
 33
0.0
  0
MTEXT
  5
4CF8
330
47F9
100
AcDbEntity
  8
尺寸标注层
 62
     0
440
 16777216
100
AcDbMText
 10
98.43176679749232
 20
162.4548919107024
 30
0.0
 40
2.0
 41
0.0
 71
     5
 72
     1
  1
\A1;0.8
  7
尺寸标注用文字
 11
0.9396926230058701
 21
0.3420201372263742
 31
0.0
 73
     1
 44
1.0
  0
POINT
  5
4CF9
330
47F9
100
AcDbEntity
  8
Defpoints
 62
     0
440
 16777216
100
AcDbPoint
 10
104.5359681101951
 20
163.0803727926827
 30
0.0
  0
POINT
  5
4CFA
330
47F9
100
AcDbEntity
  8
Defpoints
 62
     0
440
 16777216
100
AcDbPoint
 10
103.7842140118122
 20
162.8067566829095
 30
0.0
  0
POINT
  5
4CFB
330
47F9
100
AcDbEntity
  8
Defpoints
 62
     0
440
 16777216
100
AcDbPoint
 10
103.7842140118122
 20
162.8067566829095
 30
0.0
  0
ENDBLK
  5
47FB
330
47F9
100
AcDbEntity
  8
0
100
AcDbBlockEnd
  0
BLOCK
  5
4812
330
4811
100
AcDbEntity
  8
0
100
AcDbBlockBegin
  2
*D7
 70
     1
 10
0.0
 20
0.0
 30
0.0
  3
*D7
  1

  0
LINE
  5
4CFC
330
4811
100
AcDbEntity
  8
尺寸标注层
 62
     0
440
 16777216
370
    -2
100
AcDbLine
 10
92.09056781103335
 20
134.2648987016631
 30
0.0
 11
92.15074596540814
 21
134.2868017586092
 31
0.0
  0
LINE
  5
4CFD
330
4811
100
AcDbEntity
  8
尺寸标注层
 62
     0
440
 16777216
370
    -2
100
AcDbLine
 10
92.36418392569024
 20
133.5131446050663
 30
0.0
 11
92.42436208006502
 21
133.5350476620124
 31
0.0
  0
LINE
  5
4CFE
330
4811
100
AcDbEntity
  8
尺寸标注层
 62
     0
440
 16777216
370
    -2
100
AcDbLine
 10
91.16786944001509
 20
135.5253306181161
 30
0.0
 11
90.65483922501341
 21
136.9348695492902
 31
0.0
  0
LINE
  5
4CFF
330
4811
100
AcDbEntity
  8
尺寸标注层
 62
     0
440
 16777216
370
    -2
100
AcDbLine
 10
92.46754598467534
 20
131.9544986591711
 30
0.0
 11
94.45126281601517
 21
126.5042814586314
 31
0.0
  0
LINE
  5
4D00
330
4811
100
AcDbEntity
  8
尺寸标注层
 62
     0
440
 16777216
370
    -2
100
AcDbLine
 10
91.68089965501676
 20
134.115791686942
 30
0.0
 11
91.95451576967366
 21
133.3640375903452
 31
0.0
  0
SOLID
  5
4D01
330
4811
100
AcDbEntity
  8
尺寸标注层
 62
     0
440
 16777216
100
AcDbTrace
 10
91.40279259521078
 20
135.6108356539497
 30
0.0
 11
90.93294628481942
 21
135.4398255822825
 31
0.0
 12
91.68089965501676
 22
134.115791686942
 32
0.0
 13
91.68089965501676
 23
134.115791686942
 33
0.0
  0
SOLID
  5
4D02
330
4811
100
AcDbEntity
  8
尺寸标注层
 62
     0
440
 16777216
100
AcDbTrace
 10
92.70246913987103
 20
132.0400036950047
 30
0.0
 11
92.23262282947967
 21
131.8689936233375
 31
0.0
 12
91.95451576967366
 22
133.3640375903452
 32
0.0
 13
91.95451576967366
 23
133.3640375903452
 33
0.0
  0
MTEXT
  5
4D03
330
4811
100
AcDbEntity
  8
尺寸标注层
 62
     0
440
 16777216
100
AcDbMText
 10
95.12545843902019
 20
129.0376508083159
 30
0.0
 40
2.0
 41
0.0
 71
     5
 72
     1
  1
\A1;0.8
  7
尺寸标注用文字
 11
0.3420201433344548
 21
-0.9396926207827105
 31
0.0
 73
     1
 44
1.0
  0
POINT
  5
4D04
330
4811
100
AcDbEntity
  8
Defpoints
 62
     0
440
 16777216
100
AcDbPoint
 10
91.62072150064199
 20
134.0938886299959
 30
0.0
  0
POINT
  5
4D05
330
4811
100
AcDbEntity
  8
Defpoints
 62
     0
440
 16777216
100
AcDbPoint
 10
91.89433761529889
 20
133.3421345333991
 30
0.0
  0
POINT
  5
4D06
330
4811
100
AcDbEntity
  8
Defpoints
 62
     0
440
 16777216
100
AcDbPoint
 10
91.95451576967366
 20
133.3640375903452
 30
0.0
  0
ENDBLK
  5
4813
330
4811
100
AcDbEntity
  8
0
100
AcDbBlockEnd
  0
BLOCK
  5
482E
330
482D
100
AcDbEntity
  8
0
100
AcDbBlockBegin
  2
*D8
 70
     1
 10
0.0
 20
0.0
 30
0.0
  3
*D8
  1

  0
LINE
  5
4D07
330
482D
100
AcDbEntity
  8
尺寸标注层
 62
     0
440
 16777216
370
    -2
100
AcDbLine
 10
130.7704479601875
 20
139.2445037845627
 30
0.0
 11
129.2284101701353
 21
143.481217728835
 31
0.0
  0
LINE
  5
4D08
330
482D
100
AcDbEntity
  8
尺寸标注层
 62
     0
440
 16777216
370
    -2
100
AcDbLine
 10
131.5222020554875
 20
139.5181199028627
 30
0.0
 11
129.9801642654353
 21
143.7548338471349
 31
0.0
  0
LINE
  5
4D09
330
482D
100
AcDbEntity
  8
尺寸标注层
 62
     0
440
 16777216
370
    -2
100
AcDbLine
 10
127.9898813153793
 20
142.4983411974553
 30
0.0
 11
126.5803423866851
 21
141.9853109756404
 31
0.0
  0
LINE
  5
4D0A
330
482D
100
AcDbEntity
  8
尺寸标注层
 62
     0
440
 16777216
370
    -2
100
AcDbLine
 10
131.5607132680678
 20
143.7980177593851
 30
0.0
 11
137.010930459019
 21
145.7817346170693
 31
0.0
  0
LINE
  5
4D0B
330
482D
100
AcDbEntity
  8
尺寸标注层
 62
     0
440
 16777216
370
    -2
100
AcDbLine
 10
129.3994202440736
 20
143.0113714192702
 30
0.0
 11
130.1511743393736
 21
143.2849875375702
 31
0.0
  0
SOLID
  5
4D0C
330
482D
100
AcDbEntity
  8
尺寸标注层
 62
     0
440
 16777216
100
AcDbTrace
 10
127.9043762784102
 20
142.7332643522377
 30
0.0
 11
128.0753863523485
 21
142.2634180426729
 31
0.0
 12
129.3994202440736
 22
143.0113714192702
 32
0.0
 13
129.3994202440736
 23
143.0113714192702
 33
0.0
  0
SOLID
  5
4D0D
330
482D
100
AcDbEntity
  8
尺寸标注层
 62
     0
440
 16777216
100
AcDbTrace
 10
131.4752082310987
 20
144.0329409141675
 30
0.0
 11
131.646218305037
 21
143.5630946046027
 31
0.0
 12
130.1511743393736
 22
143.2849875375702
 32
0.0
 13
130.1511743393736
 23
143.2849875375702
 33
0.0
  0
MTEXT
  5
4D0E
330
482D
100
AcDbEntity
  8
尺寸标注层
 62
     0
440
 16777216
100
AcDbMText
 10
134.4775611060757
 20
146.4559302278289
 30
0.0
 40
2.0
 41
0.0
 71
     5
 72
     1
  1
\A1;0.8
  7
尺寸标注用文字
 11
0.9396926191295065
 21
0.3420201478765954
 31
0.0
 73
     1
 44
1.0
  0
POINT
  5
4D0F
330
482D
100
AcDbEntity
  8
Defpoints
 62
     0
440
 16777216
100
AcDbPoint
 10
130.9414580341258
 20
138.774657474998
 30
0.0
  0
POINT
  5
4D10
330
482D
100
AcDbEntity
  8
Defpoints
 62
     0
440
 16777216
100
AcDbPoint
 10
131.6932121294258
 20
139.048273593298
 30
0.0
  0
POINT
  5
4D11
330
482D
100
AcDbEntity
  8
Defpoints
 62
     0
440
 16777216
100
AcDbPoint
 10
130.1511743393736
 20
143.2849875375702
 30
0.0
  0
ENDBLK
  5
482F
330
482D
100
AcDbEntity
  8
0
100
AcDbBlockEnd
  0
BLOCK
  5
484A
330
4849
100
AcDbEntity
  8
0
100
AcDbBlockBegin
  2
*D9
 70
     1
 10
0.0
 20
0.0
 30
0.0
  3
*D9
  1

  0
LINE
  5
4D12
330
4849
100
AcDbEntity
  8
尺寸标注层
 62
     0
440
 16777216
370
    -2
100
AcDbLine
 10
128.41170035307
 20
194.931098091398
 30
0.0
 11
161.5157250427565
 21
194.931098091398
 31
0.0
  0
LINE
  5
4D13
330
4849
100
AcDbEntity
  8
尺寸标注层
 62
     0
440
 16777216
370
    -2
100
AcDbLine
 10
152.1414817191758
 20
143.831097815498
 30
0.0
 11
161.5157250427565
 21
143.831097815498
 31
0.0
  0
LINE
  5
4D14
330
4849
100
AcDbEntity
  8
尺寸标注层
 62
     0
440
 16777216
370
    -2
100
AcDbLine
 10
161.0157250427565
 20
193.431098091398
 30
0.0
 11
161.0157250427565
 21
145.331097815498
 31
0.0
  0
SOLID
  5
4D15
330
4849
100
AcDbEntity
  8
尺寸标注层
 62
     0
440
 16777216
100
AcDbTrace
 10
160.7657250427565
 20
193.431098091398
 30
0.0
 11
161.2657250427565
 21
193.431098091398
 31
0.0
 12
161.0157250427565
 22
194.931098091398
 32
0.0
 13
161.0157250427565
 23
194.931098091398
 33
0.0
  0
SOLID
  5
4D16
330
4849
100
AcDbEntity
  8
尺寸标注层
 62
     0
440
 16777216
100
AcDbTrace
 10
160.7657250427565
 20
145.331097815498
 30
0.0
 11
161.2657250427565
 21
145.331097815498
 31
0.0
 12
161.0157250427565
 22
143.831097815498
 32
0.0
 13
161.0157250427565
 23
143.831097815498
 33
0.0
  0
MTEXT
  5
4D17
330
4849
100
AcDbEntity
  8
尺寸标注层
 62
     0
440
 16777216
100
AcDbMText
 10
159.5157250427564
 20
169.0339671215056
 30
0.0
 40
2.0
 41
0.0
 71
     5
 72
     1
  1
\A1;51.1%%P0.05
  7
尺寸标注用文字
 11
0.0000000000000001
 21
1.0
 31
0.0
 73
     1
 44
1.0
  0
POINT
  5
4D18
330
4849
100
AcDbEntity
  8
Defpoints
 62
     0
440
 16777216
100
AcDbPoint
 10
127.91170035307
 20
194.931098091398
 30
0.0
  0
POINT
  5
4D19
330
4849
100
AcDbEntity
  8
Defpoints
 62
     0
440
 16777216
100
AcDbPoint
 10
151.6414817191758
 20
143.831097815498
 30
0.0
  0
POINT
  5
4D1A
330
4849
100
AcDbEntity
  8
Defpoints
 62
     0
440
 16777216
100
AcDbPoint
 10
161.0157250427565
 20
143.831097815498
 30
0.0
  0
ENDBLK
  5
484B
330
4849
100
AcDbEntity
  8
0
100
AcDbBlockEnd
  0
BLOCK
  5
4874
330
4873
100
AcDbEntity
  8
0
100
AcDbBlockBegin
  2
*D10
 70
     1
 10
0.0
 20
0.0
 30
0.0
  3
*D10
  1

  0
LINE
  5
4D1B
330
4873
100
AcDbEntity
  8
尺寸标注层
 62
     0
440
 16777216
370
    -2
100
AcDbLine
 10
128.41170035307
 20
194.931098091398
 30
0.0
 11
171.6417830191554
 21
194.931098091398
 31
0.0
  0
LINE
  5
4D1C
330
4873
100
AcDbEntity
  8
尺寸标注层
 62
     0
440
 16777216
370
    -2
100
AcDbLine
 10
168.3414817190758
 20
118.431097815498
 30
0.0
 11
171.6417830191554
 21
118.431097815498
 31
0.0
  0
LINE
  5
4D1D
330
4873
100
AcDbEntity
  8
尺寸标注层
 62
     0
440
 16777216
370
    -2
100
AcDbLine
 10
171.1417830191554
 20
193.431098091398
 30
0.0
 11
171.1417830191554
 21
119.931097815498
 31
0.0
  0
SOLID
  5
4D1E
330
4873
100
AcDbEntity
  8
尺寸标注层
 62
     0
440
 16777216
100
AcDbTrace
 10
170.8917830191554
 20
193.431098091398
 30
0.0
 11
171.3917830191554
 21
193.431098091398
 31
0.0
 12
171.1417830191554
 22
194.931098091398
 32
0.0
 13
171.1417830191554
 23
194.931098091398
 33
0.0
  0
SOLID
  5
4D1F
330
4873
100
AcDbEntity
  8
尺寸标注层
 62
     0
440
 16777216
100
AcDbTrace
 10
170.8917830191554
 20
119.931097815498
 30
0.0
 11
171.3917830191554
 21
119.931097815498
 31
0.0
 12
171.1417830191554
 22
118.431097815498
 32
0.0
 13
171.1417830191554
 23
118.431097815498
 33
0.0
  0
MTEXT
  5
4D20
330
4873
100
AcDbEntity
  8
尺寸标注层
 62
     0
440
 16777216
100
AcDbMText
 10
169.6417830191553
 20
156.681097953448
 30
0.0
 40
2.0
 41
0.0
 71
     5
 72
     1
  1
\A1;76.5%%P0.05
  7
尺寸标注用文字
 11
0.0000000000000001
 21
1.0
 31
0.0
 73
     1
 44
1.0
  0
POINT
  5
4D21
330
4873
100
AcDbEntity
  8
Defpoints
 62
     0
440
 16777216
100
AcDbPoint
 10
127.91170035307
 20
194.931098091398
 30
0.0
  0
POINT
  5
4D22
330
4873
100
AcDbEntity
  8
Defpoints
 62
     0
440
 16777216
100
AcDbPoint
 10
167.8414817190758
 20
118.431097815498
 30
0.0
  0
POINT
  5
4D23
330
4873
100
AcDbEntity
  8
Defpoints
 62
     0
440
 16777216
100
AcDbPoint
 10
171.1417830191554
 20
118.431097815498
 30
0.0
  0
ENDBLK
  5
4875
330
4873
100
AcDbEntity
  8
0
100
AcDbBlockEnd
  0
BLOCK
  5
48A2
330
48A1
100
AcDbEntity
  8
0
100
AcDbBlockBegin
  2
*D11
 70
     1
 10
0.0
 20
0.0
 30
0.0
  3
*D11
  1

  0
LINE
  5
4D24
330
48A1
100
AcDbEntity
  8
尺寸标注层
 62
     0
440
 16777216
370
    -2
100
AcDbLine
 10
110.2215218246758
 20
194.931098091298
 30
0.0
 11
84.9414820629755
 21
194.931098091298
 31
0.0
  0
LINE
  5
4D25
330
48A1
100
AcDbEntity
  8
尺寸标注层
 62
     0
440
 16777216
370
    -2
100
AcDbLine
 10
90.04148171917581
 20
151.831097815498
 30
0.0
 11
84.9414820629755
 21
151.831097815498
 31
0.0
  0
LINE
  5
4D26
330
48A1
100
AcDbEntity
  8
尺寸标注层
 62
     0
440
 16777216
370
    -2
100
AcDbLine
 10
85.44148206297551
 20
193.431098091298
 30
0.0
 11
85.44148206297549
 21
153.331097815498
 31
0.0
  0
SOLID
  5
4D27
330
48A1
100
AcDbEntity
  8
尺寸标注层
 62
     0
440
 16777216
100
AcDbTrace
 10
85.1914820629755
 20
193.431098091298
 30
0.0
 11
85.69148206297551
 21
193.431098091298
 31
0.0
 12
85.44148206297551
 22
194.931098091298
 32
0.0
 13
85.44148206297551
 23
194.931098091298
 33
0.0
  0
SOLID
  5
4D28
330
48A1
100
AcDbEntity
  8
尺寸标注层
 62
     0
440
 16777216
100
AcDbTrace
 10
85.19148206297549
 20
153.331097815498
 30
0.0
 11
85.69148206297549
 21
153.331097815498
 31
0.0
 12
85.44148206297549
 22
151.831097815498
 32
0.0
 13
85.44148206297549
 23
151.831097815498
 33
0.0
  0
MTEXT
  5
4D29
330
48A1
100
AcDbEntity
  8
尺寸标注层
 62
     0
440
 16777216
100
AcDbMText
 10
83.94148206297549
 20
173.381097953398
 30
0.0
 40
2.0
 41
0.0
 71
     5
 72
     1
  1
\A1;43.1%%P0.05
  7
尺寸标注用文字
 11
0.0000000000000001
 21
1.0
 31
0.0
 73
     1
 44
1.0
  0
POINT
  5
4D2A
330
48A1
100
AcDbEntity
  8
Defpoints
 62
     0
440
 16777216
100
AcDbPoint
 10
110.7215218246758
 20
194.931098091298
 30
0.0
  0
POINT
  5
4D2B
330
48A1
100
AcDbEntity
  8
Defpoints
 62
     0
440
 16777216
100
AcDbPoint
 10
90.5414817191758
 20
151.831097815498
 30
0.0
  0
POINT
  5
4D2C
330
48A1
100
AcDbEntity
  8
Defpoints
 62
     0
440
 16777216
100
AcDbPoint
 10
85.44148206297549
 20
151.831097815498
 30
0.0
  0
ENDBLK
  5
48A3
330
48A1
100
AcDbEntity
  8
0
100
AcDbBlockEnd
  0
BLOCK
  5
48D5
330
48D4
100
AcDbEntity
  8
0
100
AcDbBlockBegin
  2
*D12
 70
     1
 10
0.0
 20
0.0
 30
0.0
  3
*D12
  1

  0
LINE
  5
4D2D
330
48D4
100
AcDbEntity
  8
尺寸标注层
 62
     0
440
 16777216
370
    -2
100
AcDbLine
 10
110.2215218246758
 20
194.931098091298
 30
0.0
 11
64.94148203597586
 21
194.931098091298
 31
0.0
  0
LINE
  5
4D2E
330
48D4
100
AcDbEntity
  8
尺寸标注层
 62
     0
440
 16777216
370
    -2
100
AcDbLine
 10
67.7414817191758
 20
110.331097815498
 30
0.0
 11
64.94148203597585
 21
110.331097815498
 31
0.0
  0
LINE
  5
4D2F
330
48D4
100
AcDbEntity
  8
尺寸标注层
 62
     0
440
 16777216
370
    -2
100
AcDbLine
 10
65.44148203597586
 20
193.431098091298
 30
0.0
 11
65.44148203597585
 21
111.831097815498
 31
0.0
  0
SOLID
  5
4D30
330
48D4
100
AcDbEntity
  8
尺寸标注层
 62
     0
440
 16777216
100
AcDbTrace
 10
65.19148203597587
 20
193.431098091298
 30
0.0
 11
65.69148203597586
 21
193.431098091298
 31
0.0
 12
65.44148203597586
 22
194.931098091298
 32
0.0
 13
65.44148203597586
 23
194.931098091298
 33
0.0
  0
SOLID
  5
4D31
330
48D4
100
AcDbEntity
  8
尺寸标注层
 62
     0
440
 16777216
100
AcDbTrace
 10
65.19148203597585
 20
111.831097815498
 30
0.0
 11
65.69148203597585
 21
111.831097815498
 31
0.0
 12
65.44148203597585
 22
110.331097815498
 32
0.0
 13
65.44148203597585
 23
110.331097815498
 33
0.0
  0
MTEXT
  5
4D32
330
48D4
100
AcDbEntity
  8
尺寸标注层
 62
     0
440
 16777216
100
AcDbMText
 10
63.94148203597583
 20
152.631097953398
 30
0.0
 40
2.0
 41
0.0
 71
     5
 72
     1
  1
\A1;84.6%%P0.05
  7
尺寸标注用文字
 11
0.0000000000000001
 21
1.0
 31
0.0
 73
     1
 44
1.0
  0
POINT
  5
4D33
330
48D4
100
AcDbEntity
  8
Defpoints
 62
     0
440
 16777216
100
AcDbPoint
 10
110.7215218246758
 20
194.931098091298
 30
0.0
  0
POINT
  5
4D34
330
48D4
100
AcDbEntity
  8
Defpoints
 62
     0
440
 16777216
100
AcDbPoint
 10
68.24148171917579
 20
110.331097815498
 30
0.0
  0
POINT
  5
4D35
330
48D4
100
AcDbEntity
  8
Defpoints
 62
     0
440
 16777216
100
AcDbPoint
 10
65.44148203597585
 20
110.331097815498
 30
0.0
  0
ENDBLK
  5
48D6
330
48D4
100
AcDbEntity
  8
0
100
AcDbBlockEnd
  0
BLOCK
  5
4908
330
4907
100
AcDbEntity
  8
0
100
AcDbBlockBegin
  2
*D13
 70
     1
 10
0.0
 20
0.0
 30
0.0
  3
*D13
  1

  0
LINE
  5
4D36
330
4907
100
AcDbEntity
  8
尺寸标注层
 62
     0
440
 16777216
370
    -2
100
AcDbLine
 10
70.54148171917581
 20
107.531097815498
 30
0.0
 11
70.54148171917581
 21
101.631097882598
 31
0.0
  0
LINE
  5
4D37
330
4907
100
AcDbEntity
  8
尺寸标注层
 62
     0
440
 16777216
370
    -2
100
AcDbLine
 10
118.1414820359758
 20
106.631097815498
 30
0.0
 11
118.1414820359758
 21
101.631097882598
 31
0.0
  0
LINE
  5
4D38
330
4907
100
AcDbEntity
  8
尺寸标注层
 62
     0
440
 16777216
370
    -2
100
AcDbLine
 10
72.0414817191758
 20
102.131097882598
 30
0.0
 11
116.6414820359758
 21
102.131097882598
 31
0.0
  0
SOLID
  5
4D39
330
4907
100
AcDbEntity
  8
尺寸标注层
 62
     0
440
 16777216
100
AcDbTrace
 10
72.0414817191758
 20
102.381097882598
 30
0.0
 11
72.0414817191758
 21
101.881097882598
 31
0.0
 12
70.54148171917581
 22
102.131097882598
 32
0.0
 13
70.54148171917581
 23
102.131097882598
 33
0.0
  0
SOLID
  5
4D3A
330
4907
100
AcDbEntity
  8
尺寸标注层
 62
     0
440
 16777216
100
AcDbTrace
 10
116.6414820359758
 20
102.381097882598
 30
0.0
 11
116.6414820359758
 21
101.881097882598
 31
0.0
 12
118.1414820359758
 22
102.131097882598
 32
0.0
 13
118.1414820359758
 23
102.131097882598
 33
0.0
  0
MTEXT
  5
4D3B
330
4907
100
AcDbEntity
  8
尺寸标注层
 62
     0
440
 16777216
100
AcDbMText
 10
93.92689377867581
 20
103.631097882598
 30
0.0
 40
2.0
 41
0.0
 71
     5
 72
     1
  1
\A1;47.6%%P0.03
  7
尺寸标注用文字
 73
     1
 44
1.0
  0
POINT
  5
4D3C
330
4907
100
AcDbEntity
  8
Defpoints
 62
     0
440
 16777216
100
AcDbPoint
 10
70.54148171917581
 20
108.031097815498
 30
0.0
  0
POINT
  5
4D3D
330
4907
100
AcDbEntity
  8
Defpoints
 62
     0
440
 16777216
100
AcDbPoint
 10
118.1414820359758
 20
107.131097815498
 30
0.0
  0
POINT
  5
4D3E
330
4907
100
AcDbEntity
  8
Defpoints
 62
     0
440
 16777216
100
AcDbPoint
 10
118.1414820359758
 20
102.131097882598
 30
0.0
  0
ENDBLK
  5
4909
330
4907
100
AcDbEntity
  8
0
100
AcDbBlockEnd
  0
BLOCK
  5
4936
330
4935
100
AcDbEntity
  8
0
100
AcDbBlockBegin
  2
*D14
 70
     1
 10
0.0
 20
0.0
 30
0.0
  3
*D14
  1

  0
LINE
  5
4D3F
330
4935
100
AcDbEntity
  8
尺寸标注层
 62
     0
440
 16777216
370
    -2
100
AcDbLine
 10
165.5414817191758
 20
115.631097815498
 30
0.0
 11
165.5414817191758
 21
101.631097882598
 31
0.0
  0
LINE
  5
4D40
330
4935
100
AcDbEntity
  8
尺寸标注层
 62
     0
440
 16777216
370
    -2
100
AcDbLine
 10
118.1414820359758
 20
106.631097815498
 30
0.0
 11
118.1414820359758
 21
101.631097882598
 31
0.0
  0
LINE
  5
4D41
330
4935
100
AcDbEntity
  8
尺寸标注层
 62
     0
440
 16777216
370
    -2
100
AcDbLine
 10
164.0414817191758
 20
102.131097882598
 30
0.0
 11
119.6414820359758
 21
102.131097882598
 31
0.0
  0
SOLID
  5
4D42
330
4935
100
AcDbEntity
  8
尺寸标注层
 62
     0
440
 16777216
100
AcDbTrace
 10
164.0414817191758
 20
102.381097882598
 30
0.0
 11
164.0414817191758
 21
101.881097882598
 31
0.0
 12
165.5414817191758
 22
102.131097882598
 32
0.0
 13
165.5414817191758
 23
102.131097882598
 33
0.0
  0
SOLID
  5
4D43
330
4935
100
AcDbEntity
  8
尺寸标注层
 62
     0
440
 16777216
100
AcDbTrace
 10
119.6414820359758
 20
102.381097882598
 30
0.0
 11
119.6414820359758
 21
101.881097882598
 31
0.0
 12
118.1414820359758
 22
102.131097882598
 32
0.0
 13
118.1414820359758
 23
102.131097882598
 33
0.0
  0
MTEXT
  5
4D44
330
4935
100
AcDbEntity
  8
尺寸标注层
 62
     0
440
 16777216
100
AcDbMText
 10
141.8414818775758
 20
103.631097882598
 30
0.0
 40
2.0
 41
0.0
 71
     5
 72
     1
  1
\A1;47.4%%P0.03
  7
尺寸标注用文字
 73
     1
 44
1.0
  0
POINT
  5
4D45
330
4935
100
AcDbEntity
  8
Defpoints
 62
     0
440
 16777216
100
AcDbPoint
 10
165.5414817191758
 20
116.131097815498
 30
0.0
  0
POINT
  5
4D46
330
4935
100
AcDbEntity
  8
Defpoints
 62
     0
440
 16777216
100
AcDbPoint
 10
118.1414820359758
 20
107.131097815498
 30
0.0
  0
POINT
  5
4D47
330
4935
100
AcDbEntity
  8
Defpoints
 62
     0
440
 16777216
100
AcDbPoint
 10
118.1414820359758
 20
102.131097882598
 30
0.0
  0
ENDBLK
  5
4937
330
4935
100
AcDbEntity
  8
0
100
AcDbBlockEnd
  0
BLOCK
  5
4996
330
4995
100
AcDbEntity
  8
0
100
AcDbBlockBegin
  2
*D15
 70
     1
 10
0.0
 20
0.0
 30
0.0
  3
*D15
  1

  0
LINE
  5
4D48
330
4995
100
AcDbEntity
  8
尺寸标注层
 62
     0
440
 16777216
370
    -2
100
AcDbLine
 10
92.84148171917582
 20
149.031097815498
 30
0.0
 11
92.84148171917582
 21
145.7055676696116
 31
0.0
  0
LINE
  5
4D49
330
4995
100
AcDbEntity
  8
尺寸标注层
 62
     0
440
 16777216
370
    -2
100
AcDbLine
 10
118.1414820359758
 20
149.031097815498
 30
0.0
 11
118.1414820359758
 21
145.7055676696116
 31
0.0
  0
LINE
  5
4D4A
330
4995
100
AcDbEntity
  8
尺寸标注层
 62
     0
440
 16777216
370
    -2
100
AcDbLine
 10
94.34148171917582
 20
146.2055676696116
 30
0.0
 11
116.6414820359758
 21
146.2055676696116
 31
0.0
  0
SOLID
  5
4D4B
330
4995
100
AcDbEntity
  8
尺寸标注层
 62
     0
440
 16777216
100
AcDbTrace
 10
94.34148171917582
 20
146.4555676696116
 30
0.0
 11
94.34148171917582
 21
145.9555676696115
 31
0.0
 12
92.84148171917582
 22
146.2055676696116
 32
0.0
 13
92.84148171917582
 23
146.2055676696116
 33
0.0
  0
SOLID
  5
4D4C
330
4995
100
AcDbEntity
  8
尺寸标注层
 62
     0
440
 16777216
100
AcDbTrace
 10
116.6414820359758
 20
146.4555676696116
 30
0.0
 11
116.6414820359758
 21
145.9555676696115
 31
0.0
 12
118.1414820359758
 22
146.2055676696116
 32
0.0
 13
118.1414820359758
 23
146.2055676696116
 33
0.0
  0
MTEXT
  5
4D4D
330
4995
100
AcDbEntity
  8
尺寸标注层
 62
     0
440
 16777216
100
AcDbMText
 10
101.2188689239901
 20
147.7055676696116
 30
0.0
 40
2.0
 41
0.0
 71
     5
 72
     1
  1
\A1;25.3%%P0.05
  7
尺寸标注用文字
 73
     1
 44
1.0
  0
POINT
  5
4D4E
330
4995
100
AcDbEntity
  8
Defpoints
 62
     0
440
 16777216
100
AcDbPoint
 10
92.84148171917582
 20
149.531097815498
 30
0.0
  0
POINT
  5
4D4F
330
4995
100
AcDbEntity
  8
Defpoints
 62
     0
440
 16777216
100
AcDbPoint
 10
118.1414820359758
 20
149.531097815498
 30
0.0
  0
POINT
  5
4D50
330
4995
100
AcDbEntity
  8
Defpoints
 62
     0
440
 16777216
100
AcDbPoint
 10
118.1414820359758
 20
146.2055676696116
 30
0.0
  0
ENDBLK
  5
4997
330
4995
100
AcDbEntity
  8
0
100
AcDbBlockEnd
  0
BLOCK
  5
49AE
330
49AD
100
AcDbEntity
  8
0
100
AcDbBlockBegin
  2
*D16
 70
     1
 10
0.0
 20
0.0
 30
0.0
  3
*D16
  1

  0
LINE
  5
4D51
330
49AD
100
AcDbEntity
  8
尺寸标注层
 62
     0
440
 16777216
370
    -2
100
AcDbLine
 10
149.3414817191758
 20
141.031097815498
 30
0.0
 11
149.3414817191758
 21
138.1743838862302
 31
0.0
  0
LINE
  5
4D52
330
49AD
100
AcDbEntity
  8
尺寸标注层
 62
     0
440
 16777216
370
    -2
100
AcDbLine
 10
118.1414820359758
 20
141.031097815498
 30
0.0
 11
118.1414820359758
 21
138.1743838862302
 31
0.0
  0
LINE
  5
4D53
330
49AD
100
AcDbEntity
  8
尺寸标注层
 62
     0
440
 16777216
370
    -2
100
AcDbLine
 10
147.8414817191758
 20
138.6743838862302
 30
0.0
 11
119.6414820359758
 21
138.6743838862302
 31
0.0
  0
SOLID
  5
4D54
330
49AD
100
AcDbEntity
  8
尺寸标注层
 62
     0
440
 16777216
100
AcDbTrace
 10
147.8414817191758
 20
138.9243838862302
 30
0.0
 11
147.8414817191758
 21
138.4243838862302
 31
0.0
 12
149.3414817191758
 22
138.6743838862302
 32
0.0
 13
149.3414817191758
 23
138.6743838862302
 33
0.0
  0
SOLID
  5
4D55
330
49AD
100
AcDbEntity
  8
尺寸标注层
 62
     0
440
 16777216
100
AcDbTrace
 10
119.6414820359758
 20
138.9243838862302
 30
0.0
 11
119.6414820359758
 21
138.4243838862302
 31
0.0
 12
118.1414820359758
 22
138.6743838862302
 32
0.0
 13
118.1414820359758
 23
138.6743838862302
 33
0.0
  0
MTEXT
  5
4D56
330
49AD
100
AcDbEntity
  8
尺寸标注层
 62
     0
440
 16777216
100
AcDbMText
 10
139.1108507080271
 20
140.1743838862302
 30
0.0
 40
2.0
 41
0.0
 71
     5
 72
     1
  1
\A1;31.2%%P0.05
  7
尺寸标注用文字
 73
     1
 44
1.0
  0
POINT
  5
4D57
330
49AD
100
AcDbEntity
  8
Defpoints
 62
     0
440
 16777216
100
AcDbPoint
 10
149.3414817191758
 20
141.531097815498
 30
0.0
  0
POINT
  5
4D58
330
49AD
100
AcDbEntity
  8
Defpoints
 62
     0
440
 16777216
100
AcDbPoint
 10
118.1414820359758
 20
141.531097815498
 30
0.0
  0
POINT
  5
4D59
330
49AD
100
AcDbEntity
  8
Defpoints
 62
     0
440
 16777216
100
AcDbPoint
 10
118.1414820359758
 20
138.6743838862302
 30
0.0
  0
ENDBLK
  5
49AF
330
49AD
100
AcDbEntity
  8
0
100
AcDbBlockEnd
  0
BLOCK
  5
4A02
330
4A01
100
AcDbEntity
  8
0
100
AcDbBlockBegin
  2
*D17
 70
     1
 10
0.0
 20
0.0
 30
0.0
  3
*D17
  1

  0
LINE
  5
629D
330
4A01
100
AcDbEntity
  8
尺寸标注层
 62
     0
370
    -2
100
AcDbLine
 10
124.6244153501713
 20
106.631097882598
 30
0.0
 11
124.6244153501713
 21
103.8855828595677
 31
0.0
  0
LINE
  5
629E
330
4A01
100
AcDbEntity
  8
尺寸标注层
 62
     0
370
    -2
100
AcDbLine
 10
126.8244153501713
 20
106.631097882598
 30
0.0
 11
126.8244153501713
 21
103.8855828595677
 31
0.0
  0
LINE
  5
629F
330
4A01
100
AcDbEntity
  8
尺寸标注层
 62
     0
370
    -2
100
AcDbLine
 10
123.1244153501713
 20
104.3855828595677
 30
0.0
 11
121.6244153501713
 21
104.3855828595677
 31
0.0
  0
LINE
  5
62A0
330
4A01
100
AcDbEntity
  8
尺寸标注层
 62
     0
370
    -2
100
AcDbLine
 10
128.3244153501713
 20
104.3855828595677
 30
0.0
 11
134.4244153501713
 21
104.3855828595677
 31
0.0
  0
LINE
  5
62A1
330
4A01
100
AcDbEntity
  8
尺寸标注层
 62
     0
370
    -2
100
AcDbLine
 10
124.6244153501713
 20
104.3855828595677
 30
0.0
 11
126.8244153501713
 21
104.3855828595677
 31
0.0
  0
SOLID
  5
62A2
330
4A01
100
AcDbEntity
  8
尺寸标注层
 62
     0
100
AcDbTrace
 10
123.1244153501713
 20
104.6355828595677
 30
0.0
 11
123.1244153501713
 21
104.1355828595677
 31
0.0
 12
124.6244153501713
 22
104.3855828595677
 32
0.0
 13
124.6244153501713
 23
104.3855828595677
 33
0.0
  0
SOLID
  5
62A3
330
4A01
100
AcDbEntity
  8
尺寸标注层
 62
     0
100
AcDbTrace
 10
128.3244153501713
 20
104.6355828595677
 30
0.0
 11
128.3244153501713
 21
104.1355828595677
 31
0.0
 12
126.8244153501713
 22
104.3855828595677
 32
0.0
 13
126.8244153501713
 23
104.3855828595677
 33
0.0
  0
MTEXT
  5
62A4
330
4A01
100
AcDbEntity
  8
尺寸标注层
 62
     0
100
AcDbMText
 10
132.1244153501713
 20
105.8855828595677
 30
0.0
 40
2.0
 41
0.0
 71
     5
 72
     1
  1
\A1;2.2
  7
尺寸标注用文字
 73
     1
 44
1.0
  0
POINT
  5
62A5
330
4A01
100
AcDbEntity
  8
Defpoints
 62
     0
100
AcDbPoint
 10
124.6244153501713
 20
107.131097882598
 30
0.0
  0
POINT
  5
62A6
330
4A01
100
AcDbEntity
  8
Defpoints
 62
     0
100
AcDbPoint
 10
126.8244153501713
 20
107.131097882598
 30
0.0
  0
POINT
  5
62A7
330
4A01
100
AcDbEntity
  8
Defpoints
 62
     0
100
AcDbPoint
 10
126.8244153501713
 20
104.3855828595677
 30
0.0
  0
ENDBLK
  5
4A03
330
4A01
100
AcDbEntity
  8
0
100
AcDbBlockEnd
  0
BLOCK
  5
4A1E
330
4A1D
100
AcDbEntity
  8
0
100
AcDbBlockBegin
  2
*D18
 70
     1
 10
0.0
 20
0.0
 30
0.0
  3
*D18
  1

  0
LINE
  5
62A8
330
4A1D
100
AcDbEntity
  8
尺寸标注层
 62
     0
370
    -2
100
AcDbLine
 10
126.8244153501713
 20
106.631097882598
 30
0.0
 11
126.8244153501713
 21
99.63558285956771
 31
0.0
  0
LINE
  5
62A9
330
4A1D
100
AcDbEntity
  8
尺寸标注层
 62
     0
370
    -2
100
AcDbLine
 10
122.4244153501713
 20
117.026695977198
 30
0.0
 11
122.4244153501713
 21
99.63558285956771
 31
0.0
  0
LINE
  5
62AA
330
4A1D
100
AcDbEntity
  8
尺寸标注层
 62
     0
370
    -2
100
AcDbLine
 10
125.3244153501713
 20
100.1355828595677
 30
0.0
 11
123.9244153501713
 21
100.1355828595677
 31
0.0
  0
SOLID
  5
62AB
330
4A1D
100
AcDbEntity
  8
尺寸标注层
 62
     0
100
AcDbTrace
 10
125.3244153501713
 20
100.3855828595677
 30
0.0
 11
125.3244153501713
 21
99.8855828595677
 31
0.0
 12
126.8244153501713
 22
100.1355828595677
 32
0.0
 13
126.8244153501713
 23
100.1355828595677
 33
0.0
  0
SOLID
  5
62AC
330
4A1D
100
AcDbEntity
  8
尺寸标注层
 62
     0
100
AcDbTrace
 10
123.9244153501713
 20
100.3855828595677
 30
0.0
 11
123.9244153501713
 21
99.8855828595677
 31
0.0
 12
122.4244153501713
 22
100.1355828595677
 32
0.0
 13
122.4244153501713
 23
100.1355828595677
 33
0.0
  0
MTEXT
  5
62AD
330
4A1D
100
AcDbEntity
  8
尺寸标注层
 62
     0
100
AcDbMText
 10
124.6244153501713
 20
101.6355828595677
 30
0.0
 40
2.0
 41
0.0
 71
     5
 72
     1
  1
\A1;4.4
  7
尺寸标注用文字
 73
     1
 44
1.0
  0
POINT
  5
62AE
330
4A1D
100
AcDbEntity
  8
Defpoints
 62
     0
100
AcDbPoint
 10
126.8244153501713
 20
107.131097882598
 30
0.0
  0
POINT
  5
62AF
330
4A1D
100
AcDbEntity
  8
Defpoints
 62
     0
100
AcDbPoint
 10
122.4244153501713
 20
117.526695977198
 30
0.0
  0
POINT
  5
62B0
330
4A1D
100
AcDbEntity
  8
Defpoints
 62
     0
100
AcDbPoint
 10
122.4244153501713
 20
100.1355828595677
 30
0.0
  0
ENDBLK
  5
4A1F
330
4A1D
100
AcDbEntity
  8
0
100
AcDbBlockEnd
  0
BLOCK
  5
4A4E
330
4A4D
100
AcDbEntity
  8
0
100
AcDbBlockBegin
  2
*D19
 70
     1
 10
0.0
 20
0.0
 30
0.0
  3
*D19
  1

  0
LINE
  5
4D6E
330
4A4D
100
AcDbEntity
  8
尺寸标注层
 62
     0
440
 16777216
370
    -2
100
AcDbLine
 10
195.6557785400758
 20
160.113873748998
 30
0.0
 11
195.6557785400758
 21
157.3845786026851
 31
0.0
  0
LINE
  5
4D6F
330
4A4D
100
AcDbEntity
  8
尺寸标注层
 62
     0
440
 16777216
370
    -2
100
AcDbLine
 10
194.4557785400758
 20
160.113873748998
 30
0.0
 11
194.4557785400758
 21
157.3845786026851
 31
0.0
  0
LINE
  5
4D70
330
4A4D
100
AcDbEntity
  8
尺寸标注层
 62
     0
440
 16777216
370
    -2
100
AcDbLine
 10
192.9557785400758
 20
157.8845786026851
 30
0.0
 11
191.4557785400758
 21
157.8845786026851
 31
0.0
  0
LINE
  5
4D71
330
4A4D
100
AcDbEntity
  8
尺寸标注层
 62
     0
440
 16777216
370
    -2
100
AcDbLine
 10
197.1557785400758
 20
157.8845786026851
 30
0.0
 11
202.6557785400758
 21
157.8845786026851
 31
0.0
  0
LINE
  5
4D72
330
4A4D
100
AcDbEntity
  8
尺寸标注层
 62
     0
440
 16777216
370
    -2
100
AcDbLine
 10
194.4557785400758
 20
157.8845786026851
 30
0.0
 11
195.6557785400758
 21
157.8845786026851
 31
0.0
  0
SOLID
  5
4D73
330
4A4D
100
AcDbEntity
  8
尺寸标注层
 62
     0
440
 16777216
100
AcDbTrace
 10
192.9557785400758
 20
158.1345786026851
 30
0.0
 11
192.9557785400758
 21
157.6345786026851
 31
0.0
 12
194.4557785400758
 22
157.8845786026851
 32
0.0
 13
194.4557785400758
 23
157.8845786026851
 33
0.0
  0
SOLID
  5
4D74
330
4A4D
100
AcDbEntity
  8
尺寸标注层
 62
     0
440
 16777216
100
AcDbTrace
 10
197.1557785400758
 20
158.1345786026851
 30
0.0
 11
197.1557785400758
 21
157.6345786026851
 31
0.0
 12
195.6557785400758
 22
157.8845786026851
 32
0.0
 13
195.6557785400758
 23
157.8845786026851
 33
0.0
  0
MTEXT
  5
4D75
330
4A4D
100
AcDbEntity
  8
尺寸标注层
 62
     0
440
 16777216
100
AcDbMText
 10
200.6557785400758
 20
159.3845786026851
 30
0.0
 40
2.0
 41
0.0
 71
     5
 72
     1
  1
\A1;1.2
  7
尺寸标注用文字
 73
     1
 44
1.0
  0
POINT
  5
4D76
330
4A4D
100
AcDbEntity
  8
Defpoints
 62
     0
440
 16777216
100
AcDbPoint
 10
195.6557785400758
 20
160.613873748998
 30
0.0
  0
POINT
  5
4D77
330
4A4D
100
AcDbEntity
  8
Defpoints
 62
     0
440
 16777216
100
AcDbPoint
 10
194.4557785400758
 20
160.613873748998
 30
0.0
  0
POINT
  5
4D78
330
4A4D
100
AcDbEntity
  8
Defpoints
 62
     0
440
 16777216
100
AcDbPoint
 10
194.4557785400758
 20
157.8845786026851
 30
0.0
  0
ENDBLK
  5
4A4F
330
4A4D
100
AcDbEntity
  8
0
100
AcDbBlockEnd
  0
BLOCK
  5
4E13
330
4E12
100
AcDbEntity
  8
0
100
AcDbBlockBegin
  2
_None
 70
     0
 10
0.0
 20
0.0
 30
0.0
  3
_None
  1

  0
ENDBLK
  5
4E14
330
4E12
100
AcDbEntity
  8
0
100
AcDbBlockEnd
  0
BLOCK
  5
4E23
330
4E22
100
AcDbEntity
  8
0
100
AcDbBlockBegin
  2
*D21
 70
     1
 10
0.0
 20
0.0
 30
0.0
  3
*D21
  1

  0
LINE
  5
62B1
330
4E22
100
AcDbEntity
  8
尺寸标注层
 62
     0
370
    -2
100
AcDbLine
 10
204.4690628909163
 20
194.931098091298
 30
0.0
 11
249.7491026796664
 21
194.931098091298
 31
0.0
  0
LINE
  5
62B2
330
4E22
100
AcDbEntity
  8
尺寸标注层
 62
     0
370
    -2
100
AcDbLine
 10
238.0573452737163
 20
107.131097882598
 30
0.0
 11
249.7491026796663
 21
107.131097882598
 31
0.0
  0
LINE
  5
62B3
330
4E22
100
AcDbEntity
  8
尺寸标注层
 62
     0
370
    -2
100
AcDbLine
 10
249.2491026796663
 20
193.431098091298
 30
0.0
 11
249.2491026796663
 21
108.631097882598
 31
0.0
  0
SOLID
  5
62B4
330
4E22
100
AcDbEntity
  8
尺寸标注层
 62
     0
100
AcDbTrace
 10
248.9991026796663
 20
193.431098091298
 30
0.0
 11
249.4991026796664
 21
193.431098091298
 31
0.0
 12
249.2491026796663
 22
194.931098091298
 32
0.0
 13
249.2491026796663
 23
194.931098091298
 33
0.0
  0
SOLID
  5
62B5
330
4E22
100
AcDbEntity
  8
尺寸标注层
 62
     0
100
AcDbTrace
 10
248.9991026796663
 20
108.631097882598
 30
0.0
 11
249.4991026796663
 21
108.631097882598
 31
0.0
 12
249.2491026796663
 22
107.131097882598
 32
0.0
 13
249.2491026796663
 23
107.131097882598
 33
0.0
  0
MTEXT
  5
62B6
330
4E22
100
AcDbEntity
  8
尺寸标注层
 62
     0
100
AcDbMText
 10
247.7491026796663
 20
151.0424921721983
 30
0.0
 40
2.0
 41
0.0
 71
     5
 72
     1
  1
\A1;87.8
  7
尺寸标注用文字
 11
0.0000000000000001
 21
1.0
 31
0.0
 73
     1
 44
1.0
  0
POINT
  5
62B7
330
4E22
100
AcDbEntity
  8
Defpoints
 62
     0
100
AcDbPoint
 10
203.9690628909163
 20
194.931098091298
 30
0.0
  0
POINT
  5
62B8
330
4E22
100
AcDbEntity
  8
Defpoints
 62
     0
100
AcDbPoint
 10
237.5573452737163
 20
107.131097882598
 30
0.0
  0
POINT
  5
62B9
330
4E22
100
AcDbEntity
  8
Defpoints
 62
     0
100
AcDbPoint
 10
249.2491026796663
 20
107.131097882598
 30
0.0
  0
ENDBLK
  5
4E24
330
4E22
100
AcDbEntity
  8
0
100
AcDbBlockEnd
  0
BLOCK
  5
4E3B
330
4E3A
100
AcDbEntity
  8
0
100
AcDbBlockBegin
  2
*D22
 70
     1
 10
0.0
 20
0.0
 30
0.0
  3
*D22
  1

  0
LINE
  5
62BA
330
4E3A
100
AcDbEntity
  8
尺寸标注层
 62
     0
370
    -2
100
AcDbLine
 10
246.2491026796163
 20
109.399198751998
 30
0.0
 11
246.2491026796163
 21
102.6236042059736
 31
0.0
  0
LINE
  5
62BB
330
4E3A
100
AcDbEntity
  8
尺寸标注层
 62
     0
370
    -2
100
AcDbLine
 10
146.8491029965163
 20
116.4310978826006
 30
0.0
 11
146.8491029965163
 21
102.6236042059736
 31
0.0
  0
LINE
  5
62BC
330
4E3A
100
AcDbEntity
  8
尺寸标注层
 62
     0
370
    -2
100
AcDbLine
 10
244.7491026796163
 20
103.1236042059736
 30
0.0
 11
148.3491029965163
 21
103.1236042059736
 31
0.0
  0
SOLID
  5
62BD
330
4E3A
100
AcDbEntity
  8
尺寸标注层
 62
     0
100
AcDbTrace
 10
244.7491026796163
 20
103.3736042059736
 30
0.0
 11
244.7491026796163
 21
102.8736042059736
 31
0.0
 12
246.2491026796163
 22
103.1236042059736
 32
0.0
 13
246.2491026796163
 23
103.1236042059736
 33
0.0
  0
SOLID
  5
62BE
330
4E3A
100
AcDbEntity
  8
尺寸标注层
 62
     0
100
AcDbTrace
 10
148.3491029965163
 20
103.3736042059736
 30
0.0
 11
148.3491029965163
 21
102.8736042059736
 31
0.0
 12
146.8491029965163
 22
103.1236042059736
 32
0.0
 13
146.8491029965163
 23
103.1236042059736
 33
0.0
  0
MTEXT
  5
62BF
330
4E3A
100
AcDbEntity
  8
尺寸标注层
 62
     0
100
AcDbMText
 10
196.5491028380663
 20
104.6236042059736
 30
0.0
 40
2.0
 41
0.0
 71
     5
 72
     1
  1
\A1;99.4
  7
尺寸标注用文字
 73
     1
 44
1.0
  0
POINT
  5
62C0
330
4E3A
100
AcDbEntity
  8
Defpoints
 62
     0
100
AcDbPoint
 10
246.2491026796163
 20
109.899198751998
 30
0.0
  0
POINT
  5
62C1
330
4E3A
100
AcDbEntity
  8
Defpoints
 62
     0
100
AcDbPoint
 10
146.8491029965163
 20
116.9310978826006
 30
0.0
  0
POINT
  5
62C2
330
4E3A
100
AcDbEntity
  8
Defpoints
 62
     0
100
AcDbPoint
 10
146.8491029965163
 20
103.1236042059736
 30
0.0
  0
ENDBLK
  5
4E3C
330
4E3A
100
AcDbEntity
  8
0
100
AcDbBlockEnd
  0
BLOCK
  5
4EA3
330
4EA2
100
AcDbEntity
  8
0
100
AcDbBlockBegin
  2
*D23
 70
     1
 10
0.0
 20
0.0
 30
0.0
  3
*D23
  1

  0
LINE
  5
4EB1
330
4EA2
100
AcDbEntity
  8
尺寸标注层
 62
     0
440
 16777216
370
    -2
100
AcDbLine
 10
295.7561492097758
 20
107.131097882598
 30
0.0
 11
301.3721547551618
 21
107.131097882598
 31
0.0
  0
LINE
  5
4EB2
330
4EA2
100
AcDbEntity
  8
尺寸标注层
 62
     0
440
 16777216
370
    -2
100
AcDbLine
 10
294.7561492097758
 20
110.131097815498
 30
0.0
 11
301.3721547551618
 21
110.131097815498
 31
0.0
  0
LINE
  5
4EB3
330
4EA2
100
AcDbEntity
  8
尺寸标注层
 62
     0
440
 16777216
370
    -2
100
AcDbLine
 10
300.8721547551618
 20
105.631097882598
 30
0.0
 11
300.8721547551618
 21
104.131097882598
 31
0.0
  0
LINE
  5
4EB4
330
4EA2
100
AcDbEntity
  8
尺寸标注层
 62
     0
440
 16777216
370
    -2
100
AcDbLine
 10
300.8721547551618
 20
111.631097815498
 30
0.0
 11
300.8721547551618
 21
113.131097815498
 31
0.0
  0
LINE
  5
4EB5
330
4EA2
100
AcDbEntity
  8
尺寸标注层
 62
     0
440
 16777216
370
    -2
100
AcDbLine
 10
300.8721547551618
 20
107.131097882598
 30
0.0
 11
300.8721547551618
 21
110.131097815498
 31
0.0
  0
SOLID
  5
4EB6
330
4EA2
100
AcDbEntity
  8
尺寸标注层
 62
     0
440
 16777216
100
AcDbTrace
 10
300.6221547551618
 20
105.631097882598
 30
0.0
 11
301.1221547551618
 21
105.631097882598
 31
0.0
 12
300.8721547551618
 22
107.131097882598
 32
0.0
 13
300.8721547551618
 23
107.131097882598
 33
0.0
  0
SOLID
  5
4EB7
330
4EA2
100
AcDbEntity
  8
尺寸标注层
 62
     0
440
 16777216
100
AcDbTrace
 10
300.6221547551618
 20
111.631097815498
 30
0.0
 11
301.1221547551618
 21
111.631097815498
 31
0.0
 12
300.8721547551618
 22
110.131097815498
 32
0.0
 13
300.8721547551618
 23
110.131097815498
 33
0.0
  0
MTEXT
  5
4EB8
330
4EA2
100
AcDbEntity
  8
尺寸标注层
 62
     0
440
 16777216
100
AcDbMText
 10
299.3721547551618
 20
108.631097849048
 30
0.0
 40
2.0
 41
0.0
 71
     5
 72
     1
  1
\A1;3
  7
尺寸标注用文字
 11
0.0000000000000001
 21
1.0
 31
0.0
 73
     1
 44
1.0
  0
POINT
  5
4EB9
330
4EA2
100
AcDbEntity
  8
Defpoints
 62
     0
440
 16777216
100
AcDbPoint
 10
295.2561492097758
 20
107.131097882598
 30
0.0
  0
POINT
  5
4EBA
330
4EA2
100
AcDbEntity
  8
Defpoints
 62
     0
440
 16777216
100
AcDbPoint
 10
294.2561492097758
 20
110.131097815498
 30
0.0
  0
POINT
  5
4EBB
330
4EA2
100
AcDbEntity
  8
Defpoints
 62
     0
440
 16777216
100
AcDbPoint
 10
300.8721547551618
 20
110.131097815498
 30
0.0
  0
ENDBLK
  5
4EA4
330
4EA2
100
AcDbEntity
  8
0
100
AcDbBlockEnd
  0
BLOCK
  5
4EBF
330
4EBE
100
AcDbEntity
  8
0
100
AcDbBlockBegin
  2
*D24
 70
     1
 10
0.0
 20
0.0
 30
0.0
  3
*D24
  1

  0
LINE
  5
4EF9
330
4EBE
100
AcDbEntity
  8
尺寸标注层
 62
     0
440
 16777216
370
    -2
100
AcDbLine
 10
276.9561495265758
 20
106.631097815498
 30
0.0
 11
276.9561495265758
 21
102.631097882598
 31
0.0
  0
LINE
  5
4EFA
330
4EBE
100
AcDbEntity
  8
尺寸标注层
 62
     0
440
 16777216
370
    -2
100
AcDbLine
 10
294.7561492097758
 20
107.1310978825997
 30
0.0
 11
294.7561492097758
 21
102.631097882598
 31
0.0
  0
LINE
  5
4EFB
330
4EBE
100
AcDbEntity
  8
尺寸标注层
 62
     0
440
 16777216
370
    -2
100
AcDbLine
 10
278.4561495265758
 20
103.131097882598
 30
0.0
 11
293.2561492097758
 21
103.131097882598
 31
0.0
  0
SOLID
  5
4EFC
330
4EBE
100
AcDbEntity
  8
尺寸标注层
 62
     0
440
 16777216
100
AcDbTrace
 10
278.4561495265758
 20
103.381097882598
 30
0.0
 11
278.4561495265758
 21
102.881097882598
 31
0.0
 12
276.9561495265758
 22
103.131097882598
 32
0.0
 13
276.9561495265758
 23
103.131097882598
 33
0.0
  0
SOLID
  5
4EFD
330
4EBE
100
AcDbEntity
  8
尺寸标注层
 62
     0
440
 16777216
100
AcDbTrace
 10
293.2561492097758
 20
103.381097882598
 30
0.0
 11
293.2561492097758
 21
102.881097882598
 31
0.0
 12
294.7561492097758
 22
103.131097882598
 32
0.0
 13
294.7561492097758
 23
103.131097882598
 33
0.0
  0
MTEXT
  5
4EFE
330
4EBE
100
AcDbEntity
  8
尺寸标注层
 62
     0
440
 16777216
100
AcDbMText
 10
285.8561493681758
 20
105.2644312159313
 30
0.0
 40
2.0
 41
0.0
 71
     5
 72
     1
  1
\A1;17.8{\H0.7x;\S+0.2^  0;}
  7
尺寸标注用文字
 73
     1
 44
1.0
  0
POINT
  5
4EFF
330
4EBE
100
AcDbEntity
  8
Defpoints
 62
     0
440
 16777216
100
AcDbPoint
 10
276.9561495265758
 20
107.131097815498
 30
0.0
  0
POINT
  5
4F00
330
4EBE
100
AcDbEntity
  8
Defpoints
 62
     0
440
 16777216
100
AcDbPoint
 10
294.7561492097758
 20
107.6310978825997
 30
0.0
  0
POINT
  5
4F01
330
4EBE
100
AcDbEntity
  8
Defpoints
 62
     0
440
 16777216
100
AcDbPoint
 10
294.7561492097758
 20
103.131097882598
 30
0.0
  0
ENDBLK
  5
4EC0
330
4EBE
100
AcDbEntity
  8
0
100
AcDbBlockEnd
  0
BLOCK
  5
4F04
330
4F03
100
AcDbEntity
  8
0
100
AcDbBlockBegin
  2
*D25
 70
     1
 10
0.0
 20
0.0
 30
0.0
  3
*D25
  1

  0
LINE
  5
4F1A
330
4F03
100
AcDbEntity
  8
尺寸标注层
 62
     0
440
 16777216
370
    -2
100
AcDbLine
 10
276.9561495265758
 20
106.631097815498
 30
0.0
 11
276.9561495265758
 21
102.6518658163012
 31
0.0
  0
LINE
  5
4F1B
330
4F03
100
AcDbEntity
  8
尺寸标注层
 62
     0
440
 16777216
370
    -2
100
AcDbLine
 10
231.3561495266758
 20
110.6310978155015
 30
0.0
 11
231.3561495266758
 21
102.6518658163012
 31
0.0
  0
LINE
  5
4F1C
330
4F03
100
AcDbEntity
  8
尺寸标注层
 62
     0
440
 16777216
370
    -2
100
AcDbLine
 10
275.4561495265758
 20
103.1518658163012
 30
0.0
 11
232.8561495266758
 21
103.1518658163012
 31
0.0
  0
SOLID
  5
4F1D
330
4F03
100
AcDbEntity
  8
尺寸标注层
 62
     0
440
 16777216
100
AcDbTrace
 10
275.4561495265758
 20
103.4018658163012
 30
0.0
 11
275.4561495265758
 21
102.9018658163012
 31
0.0
 12
276.9561495265758
 22
103.1518658163012
 32
0.0
 13
276.9561495265758
 23
103.1518658163012
 33
0.0
  0
SOLID
  5
4F1E
330
4F03
100
AcDbEntity
  8
尺寸标注层
 62
     0
440
 16777216
100
AcDbTrace
 10
232.8561495266758
 20
103.4018658163012
 30
0.0
 11
232.8561495266758
 21
102.9018658163012
 31
0.0
 12
231.3561495266758
 22
103.1518658163012
 32
0.0
 13
231.3561495266758
 23
103.1518658163012
 33
0.0
  0
MTEXT
  5
4F1F
330
4F03
100
AcDbEntity
  8
尺寸标注层
 62
     0
440
 16777216
100
AcDbMText
 10
254.7095736659197
 20
104.6518658163012
 30
0.0
 40
2.0
 41
0.0
 71
     5
 72
     1
  1
\A1;45.6
  7
尺寸标注用文字
 73
     1
 44
1.0
  0
POINT
  5
4F20
330
4F03
100
AcDbEntity
  8
Defpoints
 62
     0
440
 16777216
100
AcDbPoint
 10
276.9561495265758
 20
107.131097815498
 30
0.0
  0
POINT
  5
4F21
330
4F03
100
AcDbEntity
  8
Defpoints
 62
     0
440
 16777216
100
AcDbPoint
 10
231.3561495266758
 20
111.1310978155015
 30
0.0
  0
POINT
  5
4F22
330
4F03
100
AcDbEntity
  8
Defpoints
 62
     0
440
 16777216
100
AcDbPoint
 10
231.3561495266758
 20
103.1518658163012
 30
0.0
  0
ENDBLK
  5
4F05
330
4F03
100
AcDbEntity
  8
0
100
AcDbBlockEnd
  0
BLOCK
  5
4F29
330
4F28
100
AcDbEntity
  8
0
100
AcDbBlockBegin
  2
*D26
 70
     1
 10
0.0
 20
0.0
 30
0.0
  3
*D26
  1

  0
LINE
  5
4F3F
330
4F28
100
AcDbEntity
  8
尺寸标注层
 62
     0
440
 16777216
370
    -2
100
AcDbLine
 10
232.8561495266758
 20
110.131097815498
 30
0.0
 11
236.0004114183021
 21
110.131097815498
 31
0.0
  0
LINE
  5
4F40
330
4F28
100
AcDbEntity
  8
尺寸标注层
 62
     0
440
 16777216
370
    -2
100
AcDbLine
 10
231.3561495266758
 20
116.431097882598
 30
0.0
 11
236.0004114183021
 21
116.431097882598
 31
0.0
  0
LINE
  5
4F41
330
4F28
100
AcDbEntity
  8
尺寸标注层
 62
     0
440
 16777216
370
    -2
100
AcDbLine
 10
235.5004114183021
 20
111.631097815498
 30
0.0
 11
235.5004114183021
 21
114.931097882598
 31
0.0
  0
SOLID
  5
4F42
330
4F28
100
AcDbEntity
  8
尺寸标注层
 62
     0
440
 16777216
100
AcDbTrace
 10
235.2504114183021
 20
111.631097815498
 30
0.0
 11
235.7504114183021
 21
111.631097815498
 31
0.0
 12
235.5004114183021
 22
110.131097815498
 32
0.0
 13
235.5004114183021
 23
110.131097815498
 33
0.0
  0
SOLID
  5
4F43
330
4F28
100
AcDbEntity
  8
尺寸标注层
 62
     0
440
 16777216
100
AcDbTrace
 10
235.2504114183021
 20
114.931097882598
 30
0.0
 11
235.7504114183021
 21
114.931097882598
 31
0.0
 12
235.5004114183021
 22
116.431097882598
 32
0.0
 13
235.5004114183021
 23
116.431097882598
 33
0.0
  0
MTEXT
  5
4F44
330
4F28
100
AcDbEntity
  8
尺寸标注层
 62
     0
440
 16777216
100
AcDbMText
 10
234.0004114183021
 20
113.281097849048
 30
0.0
 40
2.0
 41
0.0
 71
     5
 72
     1
  1
\A1;6.3
  7
尺寸标注用文字
 11
0.0000000000000001
 21
1.0
 31
0.0
 73
     1
 44
1.0
  0
POINT
  5
4F45
330
4F28
100
AcDbEntity
  8
Defpoints
 62
     0
440
 16777216
100
AcDbPoint
 10
232.3561495266758
 20
110.131097815498
 30
0.0
  0
POINT
  5
4F46
330
4F28
100
AcDbEntity
  8
Defpoints
 62
     0
440
 16777216
100
AcDbPoint
 10
230.8561495266758
 20
116.431097882598
 30
0.0
  0
POINT
  5
4F47
330
4F28
100
AcDbEntity
  8
Defpoints
 62
     0
440
 16777216
100
AcDbPoint
 10
235.5004114183021
 20
116.431097882598
 30
0.0
  0
ENDBLK
  5
4F2A
330
4F28
100
AcDbEntity
  8
0
100
AcDbBlockEnd
  0
BLOCK
  5
4F93
330
4F92
100
AcDbEntity
  8
0
100
AcDbBlockBegin
  2
*D27
 70
     1
 10
0.0
 20
0.0
 30
0.0
  3
*D27
  1

  0
LINE
  5
5086
330
4F92
100
AcDbEntity
  8
尺寸标注层
 62
     0
440
 16777216
370
    -2
100
AcDbLine
 10
267.0096039118553
 20
195.4310980913991
 30
0.0
 11
267.0096039118553
 21
198.431098091297
 31
0.0
  0
LINE
  5
5087
330
4F92
100
AcDbEntity
  8
尺寸标注层
 62
     0
440
 16777216
370
    -2
100
AcDbLine
 10
284.55243640195
 20
195.431098091297
 30
0.0
 11
284.55243640195
 21
198.431098091297
 31
0.0
  0
LINE
  5
5088
330
4F92
100
AcDbEntity
  8
尺寸标注层
 62
     0
440
 16777216
370
    -2
100
AcDbLine
 10
268.5096039118553
 20
197.931098091297
 30
0.0
 11
283.05243640195
 21
197.931098091297
 31
0.0
  0
LINE
  5
5089
330
4F92
100
AcDbEntity
  8
尺寸标注层
 62
     0
440
 16777216
370
    -2
100
AcDbLine
 10
284.55243640195
 20
197.931098091297
 30
0.0
 11
296.0524364019501
 21
197.931098091297
 31
0.0
  0
SOLID
  5
508A
330
4F92
100
AcDbEntity
  8
尺寸标注层
 62
     0
440
 16777216
100
AcDbTrace
 10
268.5096039118553
 20
198.181098091297
 30
0.0
 11
268.5096039118553
 21
197.681098091297
 31
0.0
 12
267.0096039118553
 22
197.931098091297
 32
0.0
 13
267.0096039118553
 23
197.931098091297
 33
0.0
  0
SOLID
  5
508B
330
4F92
100
AcDbEntity
  8
尺寸标注层
 62
     0
440
 16777216
100
AcDbTrace
 10
283.05243640195
 20
198.181098091297
 30
0.0
 11
283.05243640195
 21
197.681098091297
 31
0.0
 12
284.55243640195
 22
197.931098091297
 32
0.0
 13
284.55243640195
 23
197.931098091297
 33
0.0
  0
MTEXT
  5
508C
330
4F92
100
AcDbEntity
  8
尺寸标注层
 62
     0
440
 16777216
100
AcDbMText
 10
291.05243640195
 20
199.431098091297
 30
0.0
 40
2.0
 41
0.0
 71
     5
 72
     1
  1
\A1;(17.54)
  7
尺寸标注用文字
 73
     1
 44
1.0
  0
POINT
  5
508D
330
4F92
100
AcDbEntity
  8
Defpoints
 62
     0
440
 16777216
100
AcDbPoint
 10
267.0096039118553
 20
194.931098091399
 30
0.0
  0
POINT
  5
508E
330
4F92
100
AcDbEntity
  8
Defpoints
 62
     0
440
 16777216
100
AcDbPoint
 10
284.55243640195
 20
194.931098091297
 30
0.0
  0
POINT
  5
508F
330
4F92
100
AcDbEntity
  8
Defpoints
 62
     0
440
 16777216
100
AcDbPoint
 10
284.55243640195
 20
197.931098091297
 30
0.0
  0
ENDBLK
  5
4F94
330
4F92
100
AcDbEntity
  8
0
100
AcDbBlockEnd
  0
BLOCK
  5
4FD6
330
4FD5
100
AcDbEntity
  8
0
100
AcDbBlockBegin
  2
*D28
 70
     1
 10
0.0
 20
0.0
 30
0.0
  3
*D28
  1

  0
LINE
  5
4FE2
330
4FD5
100
AcDbEntity
  8
尺寸标注层
 62
     0
440
 16777216
370
    -2
100
AcDbLine
 10
248.2464128129717
 20
188.1018550314827
 30
0.0
 11
244.938426499673
 21
186.8978464780927
 31
0.0
  0
LINE
  5
4FE3
330
4FD5
100
AcDbEntity
  8
尺寸标注层
 62
     0
440
 16777216
370
    -2
100
AcDbLine
 10
255.4031842250825
 20
168.4387871803366
 30
0.0
 11
252.0951979117838
 21
167.2347786269465
 31
0.0
  0
LINE
  5
4FE4
330
4FD5
100
AcDbEntity
  8
尺寸标注层
 62
     0
440
 16777216
370
    -2
100
AcDbLine
 10
245.921303025051
 20
185.6593176185739
 30
0.0
 11
252.0520140071928
 21
168.8153276297883
 31
0.0
  0
SOLID
  5
4FE5
330
4FD5
100
AcDbEntity
  8
尺寸标注层
 62
     0
440
 16777216
100
AcDbTrace
 10
246.1562261802477
 20
185.7448226544046
 30
0.0
 11
245.6863798698543
 21
185.5738125827431
 31
0.0
 12
245.4082728100665
 22
187.0688565497541
 32
0.0
 13
245.4082728100665
 23
187.0688565497541
 33
0.0
  0
SOLID
  5
4FE6
330
4FD5
100
AcDbEntity
  8
尺寸标注层
 62
     0
440
 16777216
100
AcDbTrace
 10
252.2869371623895
 20
168.9008326656191
 30
0.0
 11
251.817090851996
 21
168.7298225939576
 31
0.0
 12
252.5650442221773
 22
167.405788698608
 32
0.0
 13
252.5650442221773
 23
167.405788698608
 33
0.0
  0
MTEXT
  5
4FE7
330
4FD5
100
AcDbEntity
  8
尺寸标注层
 62
     0
440
 16777216
100
AcDbMText
 10
250.053825378149
 20
178.6910123682242
 30
0.0
 40
2.0
 41
0.0
 71
     5
 72
     1
  1
\A1;20.92
  7
尺寸标注用文字
 11
0.3420201433230043
 21
-0.9396926207868782
 31
0.0
 73
     1
 44
1.0
  0
POINT
  5
4FE8
330
4FD5
100
AcDbEntity
  8
Defpoints
 62
     0
440
 16777216
100
AcDbPoint
 10
248.7162591233651
 20
188.2728651031443
 30
0.0
  0
POINT
  5
4FE9
330
4FD5
100
AcDbEntity
  8
Defpoints
 62
     0
440
 16777216
100
AcDbPoint
 10
255.8730305354759
 20
168.6097972519981
 30
0.0
  0
POINT
  5
4FEA
330
4FD5
100
AcDbEntity
  8
Defpoints
 62
     0
440
 16777216
100
AcDbPoint
 10
252.5650442221773
 20
167.405788698608
 30
0.0
  0
ENDBLK
  5
4FD7
330
4FD5
100
AcDbEntity
  8
0
100
AcDbBlockEnd
  0
BLOCK
  5
4FF4
330
4FF3
100
AcDbEntity
  8
0
100
AcDbBlockBegin
  2
*D29
 70
     1
 10
0.0
 20
0.0
 30
0.0
  3
*D29
  1

  0
LINE
  5
5000
330
4FF3
100
AcDbEntity
  8
尺寸标注层
 62
     0
440
 16777216
370
    -2
100
AcDbLine
 10
255.7020206318542
 20
169.0796431007017
 30
0.0
 11
254.6180302786716
 21
172.0578821189781
 31
0.0
  0
LINE
  5
5001
330
4FF3
100
AcDbEntity
  8
尺寸标注层
 62
     0
440
 16777216
370
    -2
100
AcDbLine
 10
236.5952492695217
 20
162.1253470518841
 30
0.0
 11
235.511258916339
 21
165.1035860701605
 31
0.0
  0
LINE
  5
5002
330
4FF3
100
AcDbEntity
  8
尺寸标注层
 62
     0
440
 16777216
370
    -2
100
AcDbLine
 10
253.3795014191555
 20
171.0750055935968
 30
0.0
 11
237.0918079191807
 21
165.146769974756
 31
0.0
  0
SOLID
  5
5003
330
4FF3
100
AcDbEntity
  8
尺寸标注层
 62
     0
440
 16777216
100
AcDbTrace
 10
253.2939963833241
 20
171.3099287487933
 30
0.0
 11
253.4650064549869
 21
170.8400824384003
 31
0.0
 12
254.7890403503344
 22
171.5880358085852
 32
0.0
 13
254.7890403503344
 23
171.5880358085852
 33
0.0
  0
SOLID
  5
5004
330
4FF3
100
AcDbEntity
  8
尺寸标注层
 62
     0
440
 16777216
100
AcDbTrace
 10
237.0063028833493
 20
165.3816931299525
 30
0.0
 11
237.1773129550121
 21
164.9118468195595
 31
0.0
 12
235.6822689880018
 22
164.6337397597676
 32
0.0
 13
235.6822689880018
 23
164.6337397597676
 33
0.0
  0
MTEXT
  5
5005
330
4FF3
100
AcDbEntity
  8
尺寸标注层
 62
     0
440
 16777216
100
AcDbMText
 10
243.7955266311659
 20
169.1829907035253
 30
0.0
 40
2.0
 41
0.0
 71
     5
 72
     1
  1
\A1;20.33
  7
尺寸标注用文字
 11
0.9396926207859291
 21
0.3420201433256116
 31
0.0
 73
     1
 44
1.0
  0
POINT
  5
5006
330
4FF3
100
AcDbEntity
  8
Defpoints
 62
     0
440
 16777216
100
AcDbPoint
 10
255.873030703517
 20
168.6097967903087
 30
0.0
  0
POINT
  5
5007
330
4FF3
100
AcDbEntity
  8
Defpoints
 62
     0
440
 16777216
100
AcDbPoint
 10
236.7662593411845
 20
161.6555007414911
 30
0.0
  0
POINT
  5
5008
330
4FF3
100
AcDbEntity
  8
Defpoints
 62
     0
440
 16777216
100
AcDbPoint
 10
235.6822689880018
 20
164.6337397597676
 30
0.0
  0
ENDBLK
  5
4FF5
330
4FF3
100
AcDbEntity
  8
0
100
AcDbBlockEnd
  0
BLOCK
  5
500C
330
500B
100
AcDbEntity
  8
0
100
AcDbBlockBegin
  2
*D30
 70
     1
 10
0.0
 20
0.0
 30
0.0
  3
*D30
  1

  0
ARC
  5
5018
330
500B
100
AcDbEntity
  8
尺寸标注层
 62
     0
440
 16777216
370
    -2
100
AcDbCircle
 10
239.2427320345758
 20
154.851447624898
 30
0.0
 40
2.655884420163371
100
AcDbArc
 50
322.8060148710074
 51
59.69398557076589
  0
SOLID
  5
5019
330
500B
100
AcDbEntity
  8
尺寸标注层
 62
     0
440
 16777216
100
AcDbTrace
 10
241.5067572768013
 20
153.0447086855544
 30
0.0
 11
241.2100267080445
 21
153.4471400083479
 31
0.0
 12
240.1510980240426
 22
152.3557326406807
 32
0.0
 13
240.1510980240426
 23
152.3557326406807
 33
0.0
  0
SOLID
  5
501A
330
500B
100
AcDbEntity
  8
尺寸标注层
 62
     0
440
 16777216
100
AcDbTrace
 10
240.5228700432058
 20
156.9017097771652
 30
0.0
 11
240.6430095387106
 21
157.3870617130013
 31
0.0
 12
239.1268839834499
 22
157.5048042315977
 32
0.0
 13
239.1268839834499
 23
157.5048042315977
 33
0.0
  0
MTEXT
  5
501B
102
{ACAD_XDICTIONARY
360
6130
102
}
330
500B
100
AcDbEntity
  8
尺寸标注层
 62
     0
440
 16777216
100
AcDbMText
 10
243.1182910997769
 20
156.3519199658274
 30
0.0
 40
2.0
 41
0.0
 71
     5
 72
     1
  1
\A1;162.5\U+00B0
  7
尺寸标注用文字
 11
0.3610476589891475
 21
-0.9325473649839221
 31
0.0
 73
     1
 44
1.0
  0
POINT
  5
501C
330
500B
100
AcDbEntity
  8
Defpoints
 62
     0
440
 16777216
100
AcDbPoint
 10
241.7978506750491
 20
154.126816141748
 30
0.0
  0
POINT
  5
501D
330
500B
100
AcDbEntity
  8
Defpoints
 62
     0
440
 16777216
100
AcDbPoint
 10
239.2427320345758
 20
154.851447624898
 30
0.0
  0
POINT
  5
501E
330
500B
100
AcDbEntity
  8
Defpoints
 62
     0
440
 16777216
100
AcDbPoint
 10
243.9230307532759
 20
141.992432890398
 30
0.0
  0
POINT
  5
501F
330
500B
100
AcDbEntity
  8
Defpoints
 62
     0
440
 16777216
100
AcDbPoint
 10
239.2427320345758
 20
154.851447624898
 30
0.0
  0
POINT
  5
5020
330
500B
100
AcDbEntity
  8
Defpoints
 62
     0
440
 16777216
100
AcDbPoint
 10
238.9211645927758
 20
162.216552932298
 30
0.0
  0
ENDBLK
  5
500D
330
500B
100
AcDbEntity
  8
0
100
AcDbBlockEnd
  0
BLOCK
  5
5024
330
5023
100
AcDbEntity
  8
0
100
AcDbBlockBegin
  2
*D31
 70
     1
 10
0.0
 20
0.0
 30
0.0
  3
*D31
  1

  0
ARC
  5
5030
330
5023
100
AcDbEntity
  8
尺寸标注层
 62
     0
440
 16777216
370
    -2
100
AcDbCircle
 10
251.1927321460758
 20
181.468811393298
 30
0.0
 40
3.372233704788472
100
AcDbArc
 50
315.7006021366338
 51
66.79939785916755
  0
SOLID
  5
5031
330
5023
100
AcDbEntity
  8
尺寸标注层
 62
     0
440
 16777216
100
AcDbTrace
 10
253.7418515442007
 20
178.9035945160074
 30
0.0
 11
253.4706285686817
 21
179.3236398677858
 31
0.0
 12
252.3461040011062
 22
178.2999482653394
 32
0.0
 13
252.3461040011062
 23
178.2999482653394
 33
0.0
  0
SOLID
  5
5032
330
5023
100
AcDbEntity
  8
尺寸标注层
 62
     0
440
 16777216
100
AcDbTrace
 10
252.4763124259163
 20
184.3224046809257
 30
0.0
 11
252.5661453848136
 21
184.8142685233615
 31
0.0
 12
251.0456373780575
 22
184.8378354788357
 32
0.0
 13
251.0456373780575
 23
184.8378354788357
 33
0.0
  0
MTEXT
  5
5033
102
{ACAD_XDICTIONARY
360
6132
102
}
330
5023
100
AcDbEntity
  8
尺寸标注层
 62
     0
440
 16777216
100
AcDbMText
 10
255.9045592129309
 20
182.7087093593128
 30
0.0
 40
2.0
 41
0.0
 71
     5
 72
     1
  1
\A1;162.5\U+00B0
  7
尺寸标注用文字
 11
0.2544824491477549
 21
-0.9670773924954302
 31
0.0
 73
     1
 44
1.0
  0
POINT
  5
5034
330
5023
100
AcDbEntity
  8
Defpoints
 62
     0
440
 16777216
100
AcDbPoint
 10
254.4370213632717
 20
180.5487311604393
 30
0.0
  0
POINT
  5
5035
330
5023
100
AcDbEntity
  8
Defpoints
 62
     0
440
 16777216
100
AcDbPoint
 10
251.1927321460758
 20
181.468811393298
 30
0.0
  0
POINT
  5
5036
330
5023
100
AcDbEntity
  8
Defpoints
 62
     0
440
 16777216
100
AcDbPoint
 10
255.8730305354758
 20
168.609797251998
 30
0.0
  0
POINT
  5
5037
330
5023
100
AcDbEntity
  8
Defpoints
 62
     0
440
 16777216
100
AcDbPoint
 10
251.1927321460758
 20
181.468811393298
 30
0.0
  0
POINT
  5
5038
330
5023
100
AcDbEntity
  8
Defpoints
 62
     0
440
 16777216
100
AcDbPoint
 10
250.8711646938758
 20
188.833916938398
 30
0.0
  0
ENDBLK
  5
5025
330
5023
100
AcDbEntity
  8
0
100
AcDbBlockEnd
  0
BLOCK
  5
503C
330
503B
100
AcDbEntity
  8
0
100
AcDbBlockBegin
  2
*D32
 70
     1
 10
0.0
 20
0.0
 30
0.0
  3
*D32
  1

  0
ARC
  5
5048
330
503B
100
AcDbEntity
  8
尺寸标注层
 62
     0
440
 16777216
370
    -2
100
AcDbCircle
 10
296.6561492099745
 20
176.9218649942181
 30
0.0
 40
2.550502392121723
100
AcDbArc
 50
124.2023243700469
 51
215.7976764139585
  0
SOLID
  5
5049
330
503B
100
AcDbEntity
  8
尺寸标注层
 62
     0
440
 16777216
100
AcDbTrace
 10
295.1489537064329
 20
179.270224580269
 30
0.0
 11
295.2959835626484
 21
178.792331055118
 31
0.0
 12
296.6561492099938
 22
179.4723673863398
 32
0.0
 13
296.6561492099938
 23
179.4723673863398
 33
0.0
  0
SOLID
  5
504A
330
503B
100
AcDbEntity
  8
尺寸标注层
 62
     0
440
 16777216
100
AcDbTrace
 10
294.7382745355863
 20
175.6294058627618
 30
0.0
 11
294.4366624581556
 21
175.2306200120249
 31
0.0
 12
295.7838260490817
 22
174.5251767051014
 32
0.0
 13
295.7838260490817
 23
174.5251767051014
 33
0.0
  0
MTEXT
  5
504B
102
{ACAD_XDICTIONARY
360
6134
102
}
330
503B
100
AcDbEntity
  8
尺寸标注层
 62
     0
440
 16777216
100
AcDbMText
 10
292.8077087372453
 20
178.1852238333624
 30
0.0
 40
2.0
 41
0.0
 71
     5
 72
     1
  1
\A1;160\U+00B0
  7
尺寸标注用文字
 11
0.3119017634952169
 21
0.9501143562374867
 31
0.0
 73
     1
 44
1.0
  0
POINT
  5
504C
330
503B
100
AcDbEntity
  8
Defpoints
 62
     0
440
 16777216
100
AcDbPoint
 10
294.212794673861
 20
176.190372640825
 30
0.0
  0
POINT
  5
504D
330
503B
100
AcDbEntity
  8
Defpoints
 62
     0
440
 16777216
100
AcDbPoint
 10
296.5958418354757
 20
176.7561718374979
 30
0.0
  0
POINT
  5
504E
330
503B
100
AcDbEntity
  8
Defpoints
 62
     0
440
 16777216
100
AcDbPoint
 10
296.6561492100758
 20
190.315644642198
 30
0.0
  0
POINT
  5
504F
330
503B
100
AcDbEntity
  8
Defpoints
 62
     0
440
 16777216
100
AcDbPoint
 10
296.6561492099758
 20
177.098191967998
 30
0.0
  0
POINT
  5
5050
330
503B
100
AcDbEntity
  8
Defpoints
 62
     0
440
 16777216
100
AcDbPoint
 10
295.2481993553758
 20
173.0535543961979
 30
0.0
  0
ENDBLK
  5
503D
330
503B
100
AcDbEntity
  8
0
100
AcDbBlockEnd
  0
BLOCK
  5
5070
330
506F
100
AcDbEntity
  8
0
100
AcDbBlockBegin
  2
*D33
 70
     1
 10
0.0
 20
0.0
 30
0.0
  3
*D33
  1

  0
LINE
  5
50BD
330
506F
100
AcDbEntity
  8
尺寸标注层
 62
     0
440
 16777216
370
    -2
100
AcDbLine
 10
276.9561495265759
 20
197.4310980913412
 30
0.0
 11
276.9561495265759
 21
201.931098091297
 31
0.0
  0
LINE
  5
50BE
330
506F
100
AcDbEntity
  8
尺寸标注层
 62
     0
440
 16777216
370
    -2
100
AcDbLine
 10
296.6561492100758
 20
190.315644642198
 30
0.0
 11
296.6561492100758
 21
201.931098091297
 31
0.0
  0
LINE
  5
50BF
330
506F
100
AcDbEntity
  8
尺寸标注层
 62
     0
440
 16777216
370
    -2
100
AcDbLine
 10
278.4561495265759
 20
201.431098091297
 30
0.0
 11
295.1561492100759
 21
201.431098091297
 31
0.0
  0
SOLID
  5
50C0
330
506F
100
AcDbEntity
  8
尺寸标注层
 62
     0
440
 16777216
100
AcDbTrace
 10
278.4561495265759
 20
201.681098091297
 30
0.0
 11
278.4561495265759
 21
201.181098091297
 31
0.0
 12
276.9561495265759
 22
201.431098091297
 32
0.0
 13
276.9561495265759
 23
201.431098091297
 33
0.0
  0
SOLID
  5
50C1
330
506F
100
AcDbEntity
  8
尺寸标注层
 62
     0
440
 16777216
100
AcDbTrace
 10
295.1561492100759
 20
201.681098091297
 30
0.0
 11
295.1561492100759
 21
201.181098091297
 31
0.0
 12
296.6561492100758
 22
201.431098091297
 32
0.0
 13
296.6561492100758
 23
201.431098091297
 33
0.0
  0
MTEXT
  5
50C2
330
506F
100
AcDbEntity
  8
尺寸标注层
 62
     0
440
 16777216
100
AcDbMText
 10
286.5524364019501
 20
202.931098091297
 30
0.0
 40
2.0
 41
0.0
 71
     5
 72
     1
  1
\A1;19.7
  7
尺寸标注用文字
 73
     1
 44
1.0
  0
POINT
  5
50C3
330
506F
100
AcDbEntity
  8
Defpoints
 62
     0
440
 16777216
100
AcDbPoint
 10
276.9561495265759
 20
196.9310980913412
 30
0.0
  0
POINT
  5
50C4
330
506F
100
AcDbEntity
  8
Defpoints
 62
     0
440
 16777216
100
AcDbPoint
 10
296.6561492100758
 20
189.815644642198
 30
0.0
  0
POINT
  5
50C5
330
506F
100
AcDbEntity
  8
Defpoints
 62
     0
440
 16777216
100
AcDbPoint
 10
296.6561492100758
 20
201.431098091297
 30
0.0
  0
ENDBLK
  5
5071
330
506F
100
AcDbEntity
  8
0
100
AcDbBlockEnd
  0
BLOCK
  5
50C8
330
50C7
100
AcDbEntity
  8
0
100
AcDbBlockBegin
  2
*D34
 70
     1
 10
0.0
 20
0.0
 30
0.0
  3
*D34
  1

  0
LINE
  5
50D4
330
50C7
100
AcDbEntity
  8
尺寸标注层
 62
     0
440
 16777216
370
    -2
100
AcDbLine
 10
276.9561495265758
 20
116.981097815498
 30
0.0
 11
276.9561495265758
 21
117.0385163172732
 31
0.0
  0
LINE
  5
50D5
330
50C7
100
AcDbEntity
  8
尺寸标注层
 62
     0
440
 16777216
370
    -2
100
AcDbLine
 10
326.6561492098182
 20
116.981097815498
 30
0.0
 11
326.6561492098182
 21
117.0385163172732
 31
0.0
  0
LINE
  5
50D6
330
50C7
100
AcDbEntity
  8
尺寸标注层
 62
     0
440
 16777216
370
    -2
100
AcDbLine
 10
278.4561495265758
 20
116.5385163172732
 30
0.0
 11
325.1561492098182
 21
116.5385163172732
 31
0.0
  0
SOLID
  5
50D7
330
50C7
100
AcDbEntity
  8
尺寸标注层
 62
     0
440
 16777216
100
AcDbTrace
 10
278.4561495265758
 20
116.7885163172732
 30
0.0
 11
278.4561495265758
 21
116.2885163172732
 31
0.0
 12
276.9561495265758
 22
116.5385163172732
 32
0.0
 13
276.9561495265758
 23
116.5385163172732
 33
0.0
  0
SOLID
  5
50D8
330
50C7
100
AcDbEntity
  8
尺寸标注层
 62
     0
440
 16777216
100
AcDbTrace
 10
325.1561492098182
 20
116.7885163172732
 30
0.0
 11
325.1561492098182
 21
116.2885163172732
 31
0.0
 12
326.6561492098182
 22
116.5385163172732
 32
0.0
 13
326.6561492098182
 23
116.5385163172732
 33
0.0
  0
MTEXT
  5
50D9
330
50C7
100
AcDbEntity
  8
尺寸标注层
 62
     0
440
 16777216
100
AcDbMText
 10
299.5176189521653
 20
118.0385163172732
 30
0.0
 40
2.0
 41
0.0
 71
     5
 72
     1
  1
\A1;49.7
  7
尺寸标注用文字
 73
     1
 44
1.0
  0
POINT
  5
50DA
330
50C7
100
AcDbEntity
  8
Defpoints
 62
     0
440
 16777216
100
AcDbPoint
 10
276.9561495265758
 20
116.481097815498
 30
0.0
  0
POINT
  5
50DB
330
50C7
100
AcDbEntity
  8
Defpoints
 62
     0
440
 16777216
100
AcDbPoint
 10
326.6561492098182
 20
116.481097815498
 30
0.0
  0
POINT
  5
50DC
330
50C7
100
AcDbEntity
  8
Defpoints
 62
     0
440
 16777216
100
AcDbPoint
 10
326.6561492098182
 20
116.5385163172732
 30
0.0
  0
ENDBLK
  5
50C9
330
50C7
100
AcDbEntity
  8
0
100
AcDbBlockEnd
  0
BLOCK
  5
5105
330
5104
100
AcDbEntity
  8
0
100
AcDbBlockBegin
  2
*D35
 70
     1
 10
0.0
 20
0.0
 30
0.0
  3
*D35
  1

  0
LINE
  5
5111
330
5104
100
AcDbEntity
  8
尺寸标注层
 62
     0
440
 16777216
370
    -2
100
AcDbLine
 10
316.6561492098759
 20
147.567031255998
 30
0.0
 11
316.6561492098759
 21
157.2203331179887
 31
0.0
  0
LINE
  5
5112
330
5104
100
AcDbEntity
  8
尺寸标注层
 62
     0
440
 16777216
370
    -2
100
AcDbLine
 10
306.6561492453758
 20
155.9738852158052
 30
0.0
 11
306.6561492453758
 21
157.2203331179887
 31
0.0
  0
LINE
  5
5113
330
5104
100
AcDbEntity
  8
尺寸标注层
 62
     0
440
 16777216
370
    -2
100
AcDbLine
 10
315.1561492098759
 20
156.7203331179887
 30
0.0
 11
308.1561492453758
 21
156.7203331179887
 31
0.0
  0
SOLID
  5
5114
330
5104
100
AcDbEntity
  8
尺寸标注层
 62
     0
440
 16777216
100
AcDbTrace
 10
315.1561492098759
 20
156.9703331179887
 30
0.0
 11
315.1561492098759
 21
156.4703331179887
 31
0.0
 12
316.6561492098759
 22
156.7203331179887
 32
0.0
 13
316.6561492098759
 23
156.7203331179887
 33
0.0
  0
SOLID
  5
5115
330
5104
100
AcDbEntity
  8
尺寸标注层
 62
     0
440
 16777216
100
AcDbTrace
 10
308.1561492453758
 20
156.9703331179887
 30
0.0
 11
308.1561492453758
 21
156.4703331179887
 31
0.0
 12
306.6561492453758
 22
156.7203331179887
 32
0.0
 13
306.6561492453758
 23
156.7203331179887
 33
0.0
  0
MTEXT
  5
5116
330
5104
100
AcDbEntity
  8
尺寸标注层
 62
     0
440
 16777216
100
AcDbMText
 10
311.3700226255073
 20
158.2203331179887
 30
0.0
 40
2.0
 41
0.0
 71
     5
 72
     1
  1
\A1;10
  7
尺寸标注用文字
 73
     1
 44
1.0
  0
POINT
  5
5117
330
5104
100
AcDbEntity
  8
Defpoints
 62
     0
440
 16777216
100
AcDbPoint
 10
316.6561492098759
 20
147.067031255998
 30
0.0
  0
POINT
  5
5118
330
5104
100
AcDbEntity
  8
Defpoints
 62
     0
440
 16777216
100
AcDbPoint
 10
306.6561492453758
 20
155.4738852158052
 30
0.0
  0
POINT
  5
5119
330
5104
100
AcDbEntity
  8
Defpoints
 62
     0
440
 16777216
100
AcDbPoint
 10
306.6561492453758
 20
156.7203331179887
 30
0.0
  0
ENDBLK
  5
5106
330
5104
100
AcDbEntity
  8
0
100
AcDbBlockEnd
  0
BLOCK
  5
511D
330
511C
100
AcDbEntity
  8
0
100
AcDbBlockBegin
  2
*D36
 70
     1
 10
0.0
 20
0.0
 30
0.0
  3
*D36
  1

  0
ARC
  5
5129
330
511C
100
AcDbEntity
  8
尺寸标注层
 62
     0
440
 16777216
370
    -2
100
AcDbCircle
 10
326.6561492098773
 20
125.6527868199244
 30
0.0
 40
4.942815032223433
100
AcDbArc
 50
177.4550174990451
 51
252.5449825003167
  0
SOLID
  5
512A
330
511C
100
AcDbEntity
  8
尺寸标注层
 62
     0
440
 16777216
100
AcDbTrace
 10
321.4730322764609
 20
125.9211350191098
 30
0.0
 11
321.9633865878811
 21
125.8233973637683
 31
0.0
 12
322.0114223981952
 22
127.3433291256997
 32
0.0
 13
322.0114223981952
 23
127.3433291256997
 33
0.0
  0
SOLID
  5
512B
330
511C
100
AcDbEntity
  8
尺寸标注层
 62
     0
440
 16777216
100
AcDbTrace
 10
325.2114513343374
 20
121.1846801702925
 30
0.0
 11
325.1355836359568
 21
120.690469595393
 31
0.0
 12
326.6561492098454
 22
120.709971787701
 32
0.0
 13
326.6561492098454
 23
120.709971787701
 33
0.0
  0
MTEXT
  5
512C
102
{ACAD_XDICTIONARY
360
6136
102
}
330
511C
100
AcDbEntity
  8
尺寸标注层
 62
     0
440
 16777216
100
AcDbMText
 10
323.8991509292673
 20
123.5907645536001
 30
0.0
 40
2.0
 41
0.0
 71
     5
 72
     1
  1
\A1;110\U+00B0
  7
尺寸标注用文字
 11
0.5989349549785946
 21
-0.8007976771349857
 31
0.0
 73
     1
 44
1.0
  0
POINT
  5
512D
330
511C
100
AcDbEntity
  8
Defpoints
 62
     0
440
 16777216
100
AcDbPoint
 10
321.9209842476843
 20
124.2351714900148
 30
0.0
  0
POINT
  5
512E
330
511C
100
AcDbEntity
  8
Defpoints
 62
     0
440
 16777216
100
AcDbPoint
 10
315.2481993551758
 20
129.804941001098
 30
0.0
  0
POINT
  5
512F
330
511C
100
AcDbEntity
  8
Defpoints
 62
     0
440
 16777216
100
AcDbPoint
 10
326.6561492098759
 20
125.442724558398
 30
0.0
  0
POINT
  5
5130
330
511C
100
AcDbEntity
  8
Defpoints
 62
     0
440
 16777216
100
AcDbPoint
 10
326.6561492097758
 20
109.899198751998
 30
0.0
  0
POINT
  5
5131
330
511C
100
AcDbEntity
  8
Defpoints
 62
     0
440
 16777216
100
AcDbPoint
 10
326.4587552528758
 20
125.724632344698
 30
0.0
  0
ENDBLK
  5
511E
330
511C
100
AcDbEntity
  8
0
100
AcDbBlockEnd
  0
BLOCK
  5
5135
330
5134
100
AcDbEntity
  8
0
100
AcDbBlockBegin
  2
*D37
 70
     1
 10
0.0
 20
0.0
 30
0.0
  3
*D37
  1

  0
ARC
  5
54EA
330
5134
100
AcDbEntity
  8
尺寸标注层
 62
     0
440
 16777216
370
    -2
100
AcDbCircle
 10
316.6561492098758
 20
147.2770935173873
 30
0.0
 40
8.539021106026673
100
AcDbArc
 50
170.0778011066783
 51
259.9221988927236
  0
SOLID
  5
54EB
330
5134
100
AcDbEntity
  8
尺寸标注层
 62
     0
440
 16777216
100
AcDbTrace
 10
308.0033239903272
 20
148.8129995438752
 30
0.0
 11
308.4863746538056
 21
148.6839179552847
 31
0.0
 12
308.6320940878379
 22
150.1976107400152
 32
0.0
 13
308.6320940878379
 23
150.1976107400152
 33
0.0
  0
SOLID
  5
54EC
330
5134
100
AcDbEntity
  8
尺寸标注层
 62
     0
440
 16777216
100
AcDbTrace
 10
315.1839042882186
 20
139.1188543576953
 30
0.0
 11
315.1399882473348
 21
138.6207867103288
 31
0.0
 12
316.6561492098758
 22
138.7380724113606
 32
0.0
 13
316.6561492098758
 23
138.7380724113606
 33
0.0
  0
MTEXT
  5
54ED
102
{ACAD_XDICTIONARY
360
613C
102
}
330
5134
100
AcDbEntity
  8
尺寸标注层
 62
     0
440
 16777216
100
AcDbMText
 10
311.9057239196077
 20
142.0827429619598
 30
0.0
 40
2.0
 41
0.0
 71
     5
 72
     1
  1
\A1;110\U+00B0
  7
尺寸标注用文字
 11
0.7379364938940454
 21
-0.6748701586078344
 31
0.0
 73
     1
 44
1.0
  0
POINT
  5
54EE
330
5134
100
AcDbEntity
  8
Defpoints
 62
     0
440
 16777216
100
AcDbPoint
 10
308.4758565448447
 20
144.8280746600476
 30
0.0
  0
POINT
  5
54EF
330
5134
100
AcDbEntity
  8
Defpoints
 62
     0
440
 16777216
100
AcDbPoint
 10
305.2481993552758
 20
151.429247698598
 30
0.0
  0
POINT
  5
54F0
330
5134
100
AcDbEntity
  8
Defpoints
 62
     0
440
 16777216
100
AcDbPoint
 10
316.6561492098758
 20
147.067031255998
 30
0.0
  0
POINT
  5
54F1
330
5134
100
AcDbEntity
  8
Defpoints
 62
     0
440
 16777216
100
AcDbPoint
 10
316.6561492098758
 20
133.849578489798
 30
0.0
  0
POINT
  5
54F2
330
5134
100
AcDbEntity
  8
Defpoints
 62
     0
440
 16777216
100
AcDbPoint
 10
316.4587552527759
 20
147.348939042198
 30
0.0
  0
ENDBLK
  5
5136
330
5134
100
AcDbEntity
  8
0
100
AcDbBlockEnd
  0
BLOCK
  5
514D
330
514C
100
AcDbEntity
  8
0
100
AcDbBlockBegin
  2
*D38
 70
     1
 10
0.0
 20
0.0
 30
0.0
  3
*D38
  1

  0
ARC
  5
5159
330
514C
100
AcDbEntity
  8
尺寸标注层
 62
     0
440
 16777216
370
    -2
100
AcDbCircle
 10
306.6561491687776
 20
168.9014002299594
 30
0.0
 40
6.031954693767315
100
AcDbArc
 50
174.2850328236324
 51
255.7149675025164
  0
SOLID
  5
515A
330
514C
100
AcDbEntity
  8
尺寸标注层
 62
     0
440
 16777216
100
AcDbTrace
 10
300.4104441093358
 20
169.5576920385715
 30
0.0
 11
300.8979074037649
 21
169.4464286727034
 31
0.0
 12
300.9879658541546
 22
170.9644502389248
 32
0.0
 13
300.9879658541546
 23
170.9644502389248
 33
0.0
  0
SOLID
  5
515B
330
514C
100
AcDbEntity
  8
尺寸标注层
 62
     0
440
 16777216
100
AcDbTrace
 10
305.1988737326315
 20
163.3040122202766
 30
0.0
 11
305.136704833499
 21
162.8078922469026
 31
0.0
 12
306.6561492031873
 22
162.869445536192
 32
0.0
 13
306.6561492031873
 23
162.869445536192
 33
0.0
  0
MTEXT
  5
515C
102
{ACAD_XDICTIONARY
360
6138
102
}
330
514C
100
AcDbEntity
  8
尺寸标注层
 62
     0
440
 16777216
100
AcDbMText
 10
303.0128228894122
 20
166.2060733539671
 30
0.0
 40
2.0
 41
0.0
 71
     5
 72
     1
  1
\A1;110\U+00B0
  7
尺寸标注用文字
 11
0.5947382659626016
 21
-0.8039193958350537
 31
0.0
 73
     1
 44
1.0
  0
POINT
  5
515D
330
514C
100
AcDbEntity
  8
Defpoints
 62
     0
440
 16777216
100
AcDbPoint
 10
300.8775998366618
 20
167.171416113279
 30
0.0
  0
POINT
  5
515E
330
514C
100
AcDbEntity
  8
Defpoints
 62
     0
440
 16777216
100
AcDbPoint
 10
295.2481993553758
 20
173.053554396198
 30
0.0
  0
POINT
  5
515F
330
514C
100
AcDbEntity
  8
Defpoints
 62
     0
440
 16777216
100
AcDbPoint
 10
306.6561491699758
 20
168.691337969798
 30
0.0
  0
POINT
  5
5160
330
514C
100
AcDbEntity
  8
Defpoints
 62
     0
440
 16777216
100
AcDbPoint
 10
306.6561492453758
 20
155.473885215798
 30
0.0
  0
POINT
  5
5161
330
514C
100
AcDbEntity
  8
Defpoints
 62
     0
440
 16777216
100
AcDbPoint
 10
306.4587552129758
 20
168.9732457542979
 30
0.0
  0
ENDBLK
  5
514E
330
514C
100
AcDbEntity
  8
0
100
AcDbBlockEnd
  0
BLOCK
  5
5165
330
5164
100
AcDbEntity
  8
0
100
AcDbBlockBegin
  2
*D39
 70
     1
 10
0.0
 20
0.0
 30
0.0
  3
*D39
  1

  0
ARC
  5
5171
330
5164
100
AcDbEntity
  8
尺寸标注层
 62
     0
440
 16777216
370
    -2
100
AcDbCircle
 10
296.6561492100775
 20
190.5257069037038
 30
0.0
 40
6.241988716878402
100
AcDbArc
 50
173.8019824899742
 51
256.1980175040399
  0
SOLID
  5
5172
330
5164
100
AcDbEntity
  8
尺寸标注层
 62
     0
440
 16777216
100
AcDbTrace
 10
290.2071518161448
 20
191.2562815617025
 30
0.0
 11
290.6941417602951
 21
191.1429643331076
 31
0.0
 12
290.7905984740048
 22
192.6605927798561
 32
0.0
 13
290.7905984740048
 23
192.6605927798561
 33
0.0
  0
SOLID
  5
5173
330
5164
100
AcDbEntity
  8
尺寸标注层
 62
     0
440
 16777216
100
AcDbTrace
 10
295.1970548185229
 20
184.7121380237516
 30
0.0
 11
295.1369778114933
 21
184.2157603920776
 31
0.0
 12
296.6561492100302
 22
184.2837181868254
 32
0.0
 13
296.6561492100302
 23
184.2837181868254
 33
0.0
  0
MTEXT
  5
5174
102
{ACAD_XDICTIONARY
360
613A
102
}
330
5164
100
AcDbEntity
  8
尺寸标注层
 62
     0
440
 16777216
100
AcDbMText
 10
292.744175372794
 20
187.8456103219718
 30
0.0
 40
2.0
 41
0.0
 71
     5
 72
     1
  1
\A1;110\U+00B0
  7
尺寸标注用文字
 11
0.5651840908420072
 21
-0.8249648134672737
 31
0.0
 73
     1
 44
1.0
  0
POINT
  5
5175
330
5164
100
AcDbEntity
  8
Defpoints
 62
     0
440
 16777216
100
AcDbPoint
 10
292.9286920182947
 20
185.5188629851195
 30
0.0
  0
POINT
  5
5176
330
5164
100
AcDbEntity
  8
Defpoints
 62
     0
440
 16777216
100
AcDbPoint
 10
284.7181295644758
 20
194.870790712098
 30
0.0
  0
POINT
  5
5177
330
5164
100
AcDbEntity
  8
Defpoints
 62
     0
440
 16777216
100
AcDbPoint
 10
296.6561492100759
 20
190.315644642198
 30
0.0
  0
POINT
  5
5178
330
5164
100
AcDbEntity
  8
Defpoints
 62
     0
440
 16777216
100
AcDbPoint
 10
296.6561492099758
 20
177.098191967998
 30
0.0
  0
POINT
  5
5179
330
5164
100
AcDbEntity
  8
Defpoints
 62
     0
440
 16777216
100
AcDbPoint
 10
296.4587552530758
 20
190.5975524284981
 30
0.0
  0
ENDBLK
  5
5166
330
5164
100
AcDbEntity
  8
0
100
AcDbBlockEnd
  0
BLOCK
  5
524C
330
524B
100
AcDbEntity
  8
0
100
AcDbBlockBegin
  2
*D40
 70
     1
 10
0.0
 20
0.0
 30
0.0
  3
*D40
  1

  0
LINE
  5
5262
330
524B
100
AcDbEntity
  8
尺寸标注层
 62
     0
440
 16777216
370
    -2
100
AcDbLine
 10
305.1561492382654
 20
156.7203331168036
 30
0.0
 11
278.4561495265758
 21
156.7203331168036
 31
0.0
  0
SOLID
  5
5263
330
524B
100
AcDbEntity
  8
尺寸标注层
 62
     0
440
 16777216
100
AcDbTrace
 10
305.1561492382654
 20
156.9703331168036
 30
0.0
 11
305.1561492382654
 21
156.4703331168036
 31
0.0
 12
306.6561492382654
 22
156.7203331168036
 32
0.0
 13
306.6561492382654
 23
156.7203331168036
 33
0.0
  0
SOLID
  5
5264
330
524B
100
AcDbEntity
  8
尺寸标注层
 62
     0
440
 16777216
100
AcDbTrace
 10
278.4561495265758
 20
156.9703331168036
 30
0.0
 11
278.4561495265758
 21
156.4703331168036
 31
0.0
 12
276.9561495265758
 22
156.7203331168036
 32
0.0
 13
276.9561495265758
 23
156.7203331168036
 33
0.0
  0
MTEXT
  5
5265
330
524B
100
AcDbEntity
  8
尺寸标注层
 62
     0
440
 16777216
100
AcDbMText
 10
290.5972123742627
 20
158.2203331168036
 30
0.0
 40
2.0
 41
0.0
 71
     5
 72
     1
  1
\A1;29.7
  7
尺寸标注用文字
 73
     1
 44
1.0
  0
POINT
  5
5266
330
524B
100
AcDbEntity
  8
Defpoints
 62
     0
440
 16777216
100
AcDbPoint
 10
306.6561492382654
 20
156.7203331168036
 30
0.0
  0
POINT
  5
5267
330
524B
100
AcDbEntity
  8
Defpoints
 62
     0
440
 16777216
100
AcDbPoint
 10
276.9561495265758
 20
156.7203331168037
 30
0.0
  0
POINT
  5
5268
330
524B
100
AcDbEntity
  8
Defpoints
 62
     0
440
 16777216
100
AcDbPoint
 10
276.9561495265758
 20
156.7203331168036
 30
0.0
  0
ENDBLK
  5
524D
330
524B
100
AcDbEntity
  8
0
100
AcDbBlockEnd
  0
BLOCK
  5
526F
330
526E
100
AcDbEntity
  8
0
100
AcDbBlockBegin
  2
*D41
 70
     1
 10
0.0
 20
0.0
 30
0.0
  3
*D41
  1

  0
LINE
  5
52DB
330
526E
100
AcDbEntity
  8
尺寸标注层
 62
     0
440
 16777216
370
    -2
100
AcDbLine
 10
242.6725728315766
 20
190.4249380012106
 30
0.0
 11
248.2725728315766
 21
190.4249380012105
 31
0.0
  0
LINE
  5
52DC
330
526E
100
AcDbEntity
  8
尺寸标注层
 62
     0
440
 16777216
370
    -2
100
AcDbLine
 10
248.2725728315766
 20
190.4249380012105
 30
0.0
 11
249.5899844542125
 21
189.707702602932
 31
0.0
  0
MTEXT
  5
52DD
330
526E
100
AcDbEntity
  8
尺寸标注层
 62
     0
440
 16777216
100
AcDbMText
 10
245.2225728315765
 20
191.9249380012105
 30
0.0
 40
2.0
 41
0.0
 71
     5
 72
     1
  1
\A1;R0.3
  7
尺寸标注用文字
 73
     1
 44
1.0
  0
SOLID
  5
52DE
330
526E
100
AcDbEntity
  8
尺寸标注层
 62
     0
440
 16777216
100
AcDbTrace
 10
249.7095236872589
 20
189.9272712067046
 30
0.0
 11
249.4704452211661
 21
189.4881339991593
 31
0.0
 12
250.9073960768484
 22
188.9904672046535
 32
0.0
 13
250.9073960768484
 23
188.9904672046535
 33
0.0
  0
POINT
  5
52DF
330
526E
100
AcDbEntity
  8
Defpoints
 62
     0
440
 16777216
100
AcDbPoint
 10
250.9073960768484
 20
188.9904672046535
 30
0.0
  0
POINT
  5
52E0
330
526E
100
AcDbEntity
  8
Defpoints
 62
     0
440
 16777216
100
AcDbPoint
 10
251.1708784013755
 20
188.8470201249979
 30
0.0
  0
ENDBLK
  5
5270
330
526E
100
AcDbEntity
  8
0
100
AcDbBlockEnd
  0
BLOCK
  5
5281
330
5280
100
AcDbEntity
  8
0
100
AcDbBlockBegin
  2
*D42
 70
     1
 10
0.0
 20
0.0
 30
0.0
  3
*D42
  1

  0
LINE
  5
52CE
330
5280
100
AcDbEntity
  8
尺寸标注层
 62
     0
440
 16777216
370
    -2
100
AcDbLine
 10
262.3876127952291
 20
197.4519486137727
 30
0.0
 11
265.2876127952291
 21
197.4519486137727
 31
0.0
  0
LINE
  5
52CF
330
5280
100
AcDbEntity
  8
尺寸标注层
 62
     0
440
 16777216
370
    -2
100
AcDbLine
 10
265.2876127952291
 20
197.4519486137727
 30
0.0
 11
265.9994820817719
 21
196.1316296678823
 31
0.0
  0
MTEXT
  5
52D0
330
5280
100
AcDbEntity
  8
尺寸标注层
 62
     0
440
 16777216
100
AcDbMText
 10
263.5876127952291
 20
198.9519486137727
 30
0.0
 40
2.0
 41
0.0
 71
     5
 72
     1
  1
\A1;R1
  7
尺寸标注用文字
 73
     1
 44
1.0
  0
SOLID
  5
52D1
330
5280
100
AcDbEntity
  8
尺寸标注层
 62
     0
440
 16777216
100
AcDbTrace
 10
266.2195352394202
 20
196.2502745489728
 30
0.0
 11
265.7794289241234
 21
196.0129847867919
 31
0.0
 12
266.7113513683146
 22
194.8113107219919
 32
0.0
 13
266.7113513683146
 23
194.8113107219919
 33
0.0
  0
ARC
  5
52D2
330
5280
100
AcDbEntity
  8
尺寸标注层
 62
     0
440
 16777216
370
    -2
100
AcDbCircle
 10
267.1859308926763
 20
193.9310980913987
 30
0.0
 40
0.9999999999996163
100
AcDbArc
 50
110.0000000001005
 51
146.9798661901864
  0
POINT
  5
52D3
330
5280
100
AcDbEntity
  8
Defpoints
 62
     0
440
 16777216
100
AcDbPoint
 10
266.7113513683146
 20
194.8113107219919
 30
0.0
  0
POINT
  5
52D4
330
5280
100
AcDbEntity
  8
Defpoints
 62
     0
440
 16777216
100
AcDbPoint
 10
267.1859308926763
 20
193.9310980913987
 30
0.0
  0
ENDBLK
  5
5282
330
5280
100
AcDbEntity
  8
0
100
AcDbBlockEnd
  0
BLOCK
  5
52E3
330
52E2
100
AcDbEntity
  8
0
100
AcDbBlockBegin
  2
*D43
 70
     1
 10
0.0
 20
0.0
 30
0.0
  3
*D43
  1

  0
LINE
  5
5307
330
52E2
100
AcDbEntity
  8
尺寸标注层
 62
     0
440
 16777216
370
    -2
100
AcDbLine
 10
218.3865089365351
 20
112.9261247464628
 30
0.0
 11
223.9865089365352
 21
112.9261247464628
 31
0.0
  0
LINE
  5
5308
330
52E2
100
AcDbEntity
  8
尺寸标注层
 62
     0
440
 16777216
370
    -2
100
AcDbLine
 10
223.9865089365352
 20
112.9261247464628
 30
0.0
 11
226.385371130261
 21
115.4747440149124
 31
0.0
  0
MTEXT
  5
5309
330
52E2
100
AcDbEntity
  8
尺寸标注层
 62
     0
440
 16777216
100
AcDbMText
 10
220.9365089365352
 20
114.4261247464628
 30
0.0
 40
2.0
 41
0.0
 71
     5
 72
     1
  1
\A1;R0.5
  7
尺寸标注用文字
 73
     1
 44
1.0
  0
LINE
  5
530A
330
52E2
100
AcDbEntity
  8
尺寸标注层
 62
     0
440
 16777216
370
    -2
100
AcDbLine
 10
227.7561495266759
 20
116.931097882598
 30
0.0
 11
227.4134549275721
 21
116.5670094156766
 31
0.0
  0
SOLID
  5
530B
330
52E2
100
AcDbEntity
  8
尺寸标注层
 62
     0
440
 16777216
100
AcDbTrace
 10
226.2033268968003
 20
115.6460913144643
 30
0.0
 11
226.5674153637217
 21
115.3033967153606
 31
0.0
 12
227.4134549275721
 22
116.5670094156766
 32
0.0
 13
227.4134549275721
 23
116.5670094156766
 33
0.0
  0
POINT
  5
530C
330
52E2
100
AcDbEntity
  8
Defpoints
 62
     0
440
 16777216
100
AcDbPoint
 10
227.4134549275721
 20
116.5670094156766
 30
0.0
  0
POINT
  5
530D
330
52E2
100
AcDbEntity
  8
Defpoints
 62
     0
440
 16777216
100
AcDbPoint
 10
227.7561495266759
 20
116.931097882598
 30
0.0
  0
ENDBLK
  5
52E4
330
52E2
100
AcDbEntity
  8
0
100
AcDbBlockEnd
  0
BLOCK
  5
5310
330
530F
100
AcDbEntity
  8
0
100
AcDbBlockBegin
  2
*D44
 70
     1
 10
0.0
 20
0.0
 30
0.0
  3
*D44
  1

  0
LINE
  5
5335
330
530F
100
AcDbEntity
  8
尺寸标注层
 62
     0
440
 16777216
370
    -2
100
AcDbLine
 10
224.2460154495422
 20
107.7649947791307
 30
0.0
 11
227.1460154495424
 21
107.7649947791307
 31
0.0
  0
LINE
  5
5336
330
530F
100
AcDbEntity
  8
尺寸标注层
 62
     0
440
 16777216
370
    -2
100
AcDbLine
 10
227.1460154495424
 20
107.7649947791307
 30
0.0
 11
230.2562760794927
 21
109.7744359173765
 31
0.0
  0
MTEXT
  5
5337
330
530F
100
AcDbEntity
  8
尺寸标注层
 62
     0
440
 16777216
100
AcDbMText
 10
225.4460154495421
 20
109.2649947791307
 30
0.0
 40
2.0
 41
0.0
 71
     5
 72
     1
  1
\A1;R1
  7
尺寸标注用文字
 73
     1
 44
1.0
  0
LINE
  5
5338
330
530F
100
AcDbEntity
  8
尺寸标注层
 62
     0
440
 16777216
370
    -2
100
AcDbLine
 10
232.3561495266758
 20
111.1310978154976
 30
0.0
 11
231.5162001478027
 21
110.5884330562493
 31
0.0
  0
SOLID
  5
5339
330
530F
100
AcDbEntity
  8
尺寸标注层
 62
     0
440
 16777216
100
AcDbTrace
 10
230.1206098896805
 20
109.9844232620949
 30
0.0
 11
230.3919422693048
 21
109.5644485726582
 31
0.0
 12
231.5162001478027
 22
110.5884330562493
 32
0.0
 13
231.5162001478027
 23
110.5884330562493
 33
0.0
  0
POINT
  5
533A
330
530F
100
AcDbEntity
  8
Defpoints
 62
     0
440
 16777216
100
AcDbPoint
 10
231.5162001478027
 20
110.5884330562493
 30
0.0
  0
POINT
  5
533B
330
530F
100
AcDbEntity
  8
Defpoints
 62
     0
440
 16777216
100
AcDbPoint
 10
232.3561495266758
 20
111.1310978154976
 30
0.0
  0
ENDBLK
  5
5311
330
530F
100
AcDbEntity
  8
0
100
AcDbBlockEnd
  0
BLOCK
  5
533E
330
533D
100
AcDbEntity
  8
0
100
AcDbBlockBegin
  2
*D45
 70
     1
 10
0.0
 20
0.0
 30
0.0
  3
*D45
  1

  0
LINE
  5
5367
330
533D
100
AcDbEntity
  8
尺寸标注层
 62
     0
440
 16777216
370
    -2
100
AcDbLine
 10
239.8503757056256
 20
119.3992073371459
 30
0.0
 11
234.2503757056253
 21
119.3992073371459
 31
0.0
  0
LINE
  5
5368
330
533D
100
AcDbEntity
  8
尺寸标注层
 62
     0
440
 16777216
370
    -2
100
AcDbLine
 10
234.2503757056253
 20
119.3992073371459
 30
0.0
 11
232.255055894904
 21
117.3604547215052
 31
0.0
  0
MTEXT
  5
5369
330
533D
100
AcDbEntity
  8
尺寸标注层
 62
     0
440
 16777216
100
AcDbMText
 10
237.3003757056256
 20
120.899207337146
 30
0.0
 40
2.0
 41
0.0
 71
     5
 72
     1
  1
\A1;R0.5
  7
尺寸标注用文字
 73
     1
 44
1.0
  0
LINE
  5
536A
330
533D
100
AcDbEntity
  8
尺寸标注层
 62
     0
440
 16777216
370
    -2
100
AcDbLine
 10
230.8561495266758
 20
115.9310978825979
 30
0.0
 11
231.205876118733
 21
116.2884370923249
 31
0.0
  0
SOLID
  5
536B
330
533D
100
AcDbEntity
  8
尺寸标注层
 62
     0
440
 16777216
100
AcDbTrace
 10
232.0763862900407
 20
117.5353180175338
 30
0.0
 11
232.4337254997675
 21
117.1855914254767
 31
0.0
 12
231.205876118733
 22
116.2884370923249
 32
0.0
 13
231.205876118733
 23
116.2884370923249
 33
0.0
  0
POINT
  5
536C
330
533D
100
AcDbEntity
  8
Defpoints
 62
     0
440
 16777216
100
AcDbPoint
 10
231.205876118733
 20
116.2884370923249
 30
0.0
  0
POINT
  5
536D
330
533D
100
AcDbEntity
  8
Defpoints
 62
     0
440
 16777216
100
AcDbPoint
 10
230.8561495266758
 20
115.9310978825979
 30
0.0
  0
ENDBLK
  5
533F
330
533D
100
AcDbEntity
  8
0
100
AcDbBlockEnd
  0
BLOCK
  5
5370
330
536F
100
AcDbEntity
  8
0
100
AcDbBlockBegin
  2
*D46
 70
     1
 10
0.0
 20
0.0
 30
0.0
  3
*D46
  1

  0
LINE
  5
5380
330
536F
100
AcDbEntity
  8
尺寸标注层
 62
     0
440
 16777216
370
    -2
100
AcDbLine
 10
333.2810381353921
 20
104.0451401122225
 30
0.0
 11
327.981038135392
 21
104.0451401122225
 31
0.0
  0
LINE
  5
5381
330
536F
100
AcDbEntity
  8
尺寸标注层
 62
     0
440
 16777216
370
    -2
100
AcDbLine
 10
327.981038135392
 20
104.0451401122225
 30
0.0
 11
326.459944098522
 21
107.1973255336402
 31
0.0
  0
MTEXT
  5
5382
330
536F
100
AcDbEntity
  8
尺寸标注层
 62
     0
440
 16777216
100
AcDbMText
 10
330.881038135392
 20
105.5451401122224
 30
0.0
 40
2.0
 41
0.0
 71
     5
 72
     1
  1
\A1;R1.5
  7
尺寸标注用文字
 73
     1
 44
1.0
  0
LINE
  5
5383
330
536F
100
AcDbEntity
  8
尺寸标注层
 62
     0
440
 16777216
370
    -2
100
AcDbLine
 10
325.1561492097762
 20
109.8991987519982
 30
0.0
 11
325.8080466541491
 21
108.5482621428192
 31
0.0
  0
SOLID
  5
5384
330
536F
100
AcDbEntity
  8
尺寸标注层
 62
     0
440
 16777216
100
AcDbTrace
 10
326.6851002000519
 20
107.3059751077023
 30
0.0
 11
326.2347879969922
 21
107.088675959578
 31
0.0
 12
325.8080466541491
 22
108.5482621428192
 32
0.0
 13
325.8080466541491
 23
108.5482621428192
 33
0.0
  0
POINT
  5
5385
330
536F
100
AcDbEntity
  8
Defpoints
 62
     0
440
 16777216
100
AcDbPoint
 10
325.8080466541491
 20
108.5482621428192
 30
0.0
  0
POINT
  5
5386
330
536F
100
AcDbEntity
  8
Defpoints
 62
     0
440
 16777216
100
AcDbPoint
 10
325.1561492097762
 20
109.8991987519982
 30
0.0
  0
ENDBLK
  5
5371
330
536F
100
AcDbEntity
  8
0
100
AcDbBlockEnd
  0
BLOCK
  5
5389
330
5388
100
AcDbEntity
  8
0
100
AcDbBlockBegin
  2
*D47
 70
     1
 10
0.0
 20
0.0
 30
0.0
  3
*D47
  1

  0
LINE
  5
539B
330
5388
100
AcDbEntity
  8
尺寸标注层
 62
     0
440
 16777216
370
    -2
100
AcDbLine
 10
325.8105591385391
 20
102.65054340129
 30
0.0
 11
320.5105591385391
 21
102.65054340129
 31
0.0
  0
LINE
  5
539C
330
5388
100
AcDbEntity
  8
尺寸标注层
 62
     0
440
 16777216
370
    -2
100
AcDbLine
 10
320.5105591385391
 20
102.65054340129
 30
0.0
 11
319.1395459583358
 21
105.8708419681481
 31
0.0
  0
MTEXT
  5
539D
330
5388
100
AcDbEntity
  8
尺寸标注层
 62
     0
440
 16777216
100
AcDbMText
 10
323.4105591385392
 20
104.1505434012899
 30
0.0
 40
2.0
 41
0.0
 71
     5
 72
     1
  1
\A1;R1.5
  7
尺寸标注用文字
 73
     1
 44
1.0
  0
LINE
  5
539E
330
5388
100
AcDbEntity
  8
尺寸标注层
 62
     0
440
 16777216
370
    -2
100
AcDbLine
 10
317.9643918038757
 20
108.631097882598
 30
0.0
 11
318.5519688811057
 21
107.250969925373
 31
0.0
  0
SOLID
  5
539F
330
5388
100
AcDbEntity
  8
尺寸标注层
 62
     0
440
 16777216
100
AcDbTrace
 10
319.3695672845399
 20
105.9687714810198
 30
0.0
 11
318.9095246321316
 21
105.7729124552764
 31
0.0
 12
318.5519688811057
 22
107.250969925373
 32
0.0
 13
318.5519688811057
 23
107.250969925373
 33
0.0
  0
ARC
  5
53A0
330
5388
100
AcDbEntity
  8
尺寸标注层
 62
     0
440
 16777216
370
    -2
100
AcDbCircle
 10
317.9643918038757
 20
108.631097882598
 30
0.0
 40
1.500000000000028
100
AcDbArc
 50
279.9999999998001
 51
312.1600370690972
  0
POINT
  5
53A1
330
5388
100
AcDbEntity
  8
Defpoints
 62
     0
440
 16777216
100
AcDbPoint
 10
318.5519688811057
 20
107.250969925373
 30
0.0
  0
POINT
  5
53A2
330
5388
100
AcDbEntity
  8
Defpoints
 62
     0
440
 16777216
100
AcDbPoint
 10
317.9643918038757
 20
108.631097882598
 30
0.0
  0
ENDBLK
  5
538A
330
5388
100
AcDbEntity
  8
0
100
AcDbBlockEnd
  0
BLOCK
  5
5474
330
5473
100
AcDbEntity
  8
0
100
AcDbBlockBegin
  2
*D48
 70
     1
 10
0.0
 20
0.0
 30
0.0
  3
*D48
  1

  0
LINE
  5
548B
330
5473
100
AcDbEntity
  8
尺寸标注层
 62
     0
440
 16777216
370
    -2
100
AcDbLine
 10
309.8260900423088
 20
122.7447914352268
 30
0.0
 11
300.6260900423088
 21
122.7447914352268
 31
0.0
  0
LINE
  5
548C
330
5473
100
AcDbEntity
  8
尺寸标注层
 62
     0
440
 16777216
370
    -2
100
AcDbLine
 10
300.6260900423088
 20
122.7447914352268
 30
0.0
 11
297.9724913306969
 21
125.0269864044903
 31
0.0
  0
MTEXT
  5
548D
330
5473
100
AcDbEntity
  8
尺寸标注层
 62
     0
440
 16777216
100
AcDbMText
 10
305.4760900423088
 20
124.2447914352268
 30
0.0
 40
2.0
 41
0.0
 71
     5
 72
     1
  1
\A1;4-R0.5
  7
尺寸标注用文字
 73
     1
 44
1.0
  0
LINE
  5
548E
330
5473
100
AcDbEntity
  8
尺寸标注层
 62
     0
440
 16777216
370
    -2
100
AcDbLine
 10
296.4561492097758
 20
126.331097815498
 30
0.0
 11
296.8352347400061
 21
126.0050699627461
 31
0.0
  0
SOLID
  5
548F
330
5473
100
AcDbEntity
  8
尺寸标注层
 62
     0
440
 16777216
100
AcDbTrace
 10
298.1355052570728
 20
125.2165291696055
 30
0.0
 11
297.809477404321
 21
124.8374436393752
 31
0.0
 12
296.8352347400061
 22
126.0050699627461
 32
0.0
 13
296.8352347400061
 23
126.0050699627461
 33
0.0
  0
POINT
  5
5490
330
5473
100
AcDbEntity
  8
Defpoints
 62
     0
440
 16777216
100
AcDbPoint
 10
296.8352347400061
 20
126.0050699627461
 30
0.0
  0
POINT
  5
5491
330
5473
100
AcDbEntity
  8
Defpoints
 62
     0
440
 16777216
100
AcDbPoint
 10
296.4561492097758
 20
126.331097815498
 30
0.0
  0
ENDBLK
  5
5475
330
5473
100
AcDbEntity
  8
0
100
AcDbBlockEnd
  0
BLOCK
  5
5494
330
5493
100
AcDbEntity
  8
0
100
AcDbBlockBegin
  2
*D49
 70
     1
 10
0.0
 20
0.0
 30
0.0
  3
*D49
  1

  0
LINE
  5
54AA
330
5493
100
AcDbEntity
  8
尺寸标注层
 62
     0
440
 16777216
370
    -2
100
AcDbLine
 10
296.9561492097758
 20
145.831097815498
 30
0.0
 11
302.284272530711
 21
145.831097815498
 31
0.0
  0
LINE
  5
54AB
330
5493
100
AcDbEntity
  8
尺寸标注层
 62
     0
440
 16777216
370
    -2
100
AcDbLine
 10
296.9561492097758
 20
125.831097815498
 30
0.0
 11
302.284272530711
 21
125.831097815498
 31
0.0
  0
LINE
  5
54AC
330
5493
100
AcDbEntity
  8
尺寸标注层
 62
     0
440
 16777216
370
    -2
100
AcDbLine
 10
301.784272530711
 20
144.331097815498
 30
0.0
 11
301.7842725307109
 21
127.331097815498
 31
0.0
  0
SOLID
  5
54AD
330
5493
100
AcDbEntity
  8
尺寸标注层
 62
     0
440
 16777216
100
AcDbTrace
 10
301.534272530711
 20
144.331097815498
 30
0.0
 11
302.034272530711
 21
144.331097815498
 31
0.0
 12
301.784272530711
 22
145.831097815498
 32
0.0
 13
301.784272530711
 23
145.831097815498
 33
0.0
  0
SOLID
  5
54AE
330
5493
100
AcDbEntity
  8
尺寸标注层
 62
     0
440
 16777216
100
AcDbTrace
 10
301.5342725307109
 20
127.331097815498
 30
0.0
 11
302.034272530711
 21
127.331097815498
 31
0.0
 12
301.7842725307109
 22
125.831097815498
 32
0.0
 13
301.7842725307109
 23
125.831097815498
 33
0.0
  0
MTEXT
  5
54AF
330
5493
100
AcDbEntity
  8
尺寸标注层
 62
     0
440
 16777216
100
AcDbMText
 10
300.284272530711
 20
135.489105792402
 30
0.0
 40
2.0
 41
0.0
 71
     5
 72
     1
  1
\A1;20
  7
尺寸标注用文字
 11
0.0000000000000001
 21
1.0
 31
0.0
 73
     1
 44
1.0
  0
POINT
  5
54B0
330
5493
100
AcDbEntity
  8
Defpoints
 62
     0
440
 16777216
100
AcDbPoint
 10
296.4561492097758
 20
145.831097815498
 30
0.0
  0
POINT
  5
54B1
330
5493
100
AcDbEntity
  8
Defpoints
 62
     0
440
 16777216
100
AcDbPoint
 10
296.4561492097758
 20
125.831097815498
 30
0.0
  0
POINT
  5
54B2
330
5493
100
AcDbEntity
  8
Defpoints
 62
     0
440
 16777216
100
AcDbPoint
 10
301.7842725307109
 20
125.831097815498
 30
0.0
  0
ENDBLK
  5
5495
330
5493
100
AcDbEntity
  8
0
100
AcDbBlockEnd
  0
BLOCK
  5
54B5
330
54B4
100
AcDbEntity
  8
0
100
AcDbBlockBegin
  2
*D50
 70
     1
 10
0.0
 20
0.0
 30
0.0
  3
*D50
  1

  0
LINE
  5
54C1
330
54B4
100
AcDbEntity
  8
尺寸标注层
 62
     0
440
 16777216
370
    -2
100
AcDbLine
 10
296.9561492097758
 20
125.831097815498
 30
0.0
 11
296.9561492097758
 21
121.6440381928054
 31
0.0
  0
LINE
  5
54C2
330
54B4
100
AcDbEntity
  8
尺寸标注层
 62
     0
440
 16777216
370
    -2
100
AcDbLine
 10
256.9561492097758
 20
125.831097815498
 30
0.0
 11
256.9561492097758
 21
121.6440381928054
 31
0.0
  0
LINE
  5
54C3
330
54B4
100
AcDbEntity
  8
尺寸标注层
 62
     0
440
 16777216
370
    -2
100
AcDbLine
 10
295.4561492097758
 20
122.1440381928054
 30
0.0
 11
258.4561492097758
 21
122.1440381928054
 31
0.0
  0
SOLID
  5
54C4
330
54B4
100
AcDbEntity
  8
尺寸标注层
 62
     0
440
 16777216
100
AcDbTrace
 10
295.4561492097758
 20
122.3940381928054
 30
0.0
 11
295.4561492097758
 21
121.8940381928054
 31
0.0
 12
296.9561492097758
 22
122.1440381928054
 32
0.0
 13
296.9561492097758
 23
122.1440381928054
 33
0.0
  0
SOLID
  5
54C5
330
54B4
100
AcDbEntity
  8
尺寸标注层
 62
     0
440
 16777216
100
AcDbTrace
 10
258.4561492097758
 20
122.3940381928054
 30
0.0
 11
258.4561492097758
 21
121.8940381928054
 31
0.0
 12
256.9561492097758
 22
122.1440381928054
 32
0.0
 13
256.9561492097758
 23
122.1440381928054
 33
0.0
  0
MTEXT
  5
54C6
330
54B4
100
AcDbEntity
  8
尺寸标注层
 62
     0
440
 16777216
100
AcDbMText
 10
281.3595248801807
 20
123.6440381928054
 30
0.0
 40
2.0
 41
0.0
 71
     5
 72
     1
  1
\A1;40
  7
尺寸标注用文字
 73
     1
 44
1.0
  0
POINT
  5
54C7
330
54B4
100
AcDbEntity
  8
Defpoints
 62
     0
440
 16777216
100
AcDbPoint
 10
296.9561492097758
 20
126.331097815498
 30
0.0
  0
POINT
  5
54C8
330
54B4
100
AcDbEntity
  8
Defpoints
 62
     0
440
 16777216
100
AcDbPoint
 10
256.9561492097758
 20
126.331097815498
 30
0.0
  0
POINT
  5
54C9
330
54B4
100
AcDbEntity
  8
Defpoints
 62
     0
440
 16777216
100
AcDbPoint
 10
256.9561492097758
 20
122.1440381928054
 30
0.0
  0
ENDBLK
  5
54B6
330
54B4
100
AcDbEntity
  8
0
100
AcDbBlockEnd
  0
BLOCK
  5
54CD
330
54CC
100
AcDbEntity
  8
0
100
AcDbBlockBegin
  2
*D51
 70
     1
 10
0.0
 20
0.0
 30
0.0
  3
*D51
  1

  0
LINE
  5
54E1
330
54CC
100
AcDbEntity
  8
尺寸标注层
 62
     0
440
 16777216
370
    -2
100
AcDbLine
 10
285.05243640195
 20
194.931098091297
 30
0.0
 11
321.156149209876
 21
194.931098091297
 31
0.0
  0
LINE
  5
54E2
330
54CC
100
AcDbEntity
  8
尺寸标注层
 62
     0
440
 16777216
370
    -2
100
AcDbLine
 10
296.9561492097758
 20
145.831097815498
 30
0.0
 11
321.156149209876
 21
145.831097815498
 31
0.0
  0
LINE
  5
54E3
330
54CC
100
AcDbEntity
  8
尺寸标注层
 62
     0
440
 16777216
370
    -2
100
AcDbLine
 10
320.656149209876
 20
193.431098091297
 30
0.0
 11
320.656149209876
 21
147.331097815498
 31
0.0
  0
SOLID
  5
54E4
330
54CC
100
AcDbEntity
  8
尺寸标注层
 62
     0
440
 16777216
100
AcDbTrace
 10
320.406149209876
 20
193.431098091297
 30
0.0
 11
320.906149209876
 21
193.431098091297
 31
0.0
 12
320.656149209876
 22
194.931098091297
 32
0.0
 13
320.656149209876
 23
194.931098091297
 33
0.0
  0
SOLID
  5
54E5
330
54CC
100
AcDbEntity
  8
尺寸标注层
 62
     0
440
 16777216
100
AcDbTrace
 10
320.406149209876
 20
147.331097815498
 30
0.0
 11
320.906149209876
 21
147.331097815498
 31
0.0
 12
320.656149209876
 22
145.831097815498
 32
0.0
 13
320.656149209876
 23
145.831097815498
 33
0.0
  0
MTEXT
  5
54E6
330
54CC
100
AcDbEntity
  8
尺寸标注层
 62
     0
440
 16777216
100
AcDbMText
 10
319.156149209876
 20
170.3810979533975
 30
0.0
 40
2.0
 41
0.0
 71
     5
 72
     1
  1
\A1;49.1
  7
尺寸标注用文字
 11
0.0000000000000001
 21
1.0
 31
0.0
 73
     1
 44
1.0
  0
POINT
  5
54E7
330
54CC
100
AcDbEntity
  8
Defpoints
 62
     0
440
 16777216
100
AcDbPoint
 10
284.55243640195
 20
194.931098091297
 30
0.0
  0
POINT
  5
54E8
330
54CC
100
AcDbEntity
  8
Defpoints
 62
     0
440
 16777216
100
AcDbPoint
 10
296.4561492097758
 20
145.831097815498
 30
0.0
  0
POINT
  5
54E9
330
54CC
100
AcDbEntity
  8
Defpoints
 62
     0
440
 16777216
100
AcDbPoint
 10
320.656149209876
 20
145.831097815498
 30
0.0
  0
ENDBLK
  5
54CE
330
54CC
100
AcDbEntity
  8
0
100
AcDbBlockEnd
  0
BLOCK
  5
5927
330
5926
100
AcDbEntity
  8
0
100
AcDbBlockBegin
  2
*D52
 70
     1
 10
0.0
 20
0.0
 30
0.0
  3
*D52
  1

  0
LINE
  5
5FC2
330
5926
100
AcDbEntity
  8
尺寸标注层
 62
     0
440
 16777216
370
    -2
100
AcDbLine
 10
206.0608022540701
 20
73.67306264706804
 30
0.0
 11
201.728416986484
 21
73.67306264706804
 31
0.0
  0
LINE
  5
5FC3
330
5926
100
AcDbEntity
  8
尺寸标注层
 62
     0
440
 16777216
370
    -2
100
AcDbLine
 10
206.0608022540701
 20
65.67306264706804
 30
0.0
 11
201.728416986484
 21
65.67306264706804
 31
0.0
  0
LINE
  5
5FC4
330
5926
100
AcDbEntity
  8
尺寸标注层
 62
     0
440
 16777216
370
    -2
100
AcDbLine
 10
202.2284169864841
 20
72.47306264706804
 30
0.0
 11
202.2284169864841
 21
66.87306264706804
 31
0.0
  0
SOLID
  5
5FC5
330
5926
100
AcDbEntity
  8
尺寸标注层
 62
     0
440
 16777216
100
AcDbTrace
 10
202.0284169864841
 20
72.47306264706804
 30
0.0
 11
202.4284169864841
 21
72.47306264706804
 31
0.0
 12
202.2284169864841
 22
73.67306264706804
 32
0.0
 13
202.2284169864841
 23
73.67306264706804
 33
0.0
  0
SOLID
  5
5FC6
330
5926
100
AcDbEntity
  8
尺寸标注层
 62
     0
440
 16777216
100
AcDbTrace
 10
202.0284169864841
 20
66.87306264706804
 30
0.0
 11
202.4284169864841
 21
66.87306264706804
 31
0.0
 12
202.2284169864841
 22
65.67306264706804
 32
0.0
 13
202.2284169864841
 23
65.67306264706804
 33
0.0
  0
MTEXT
  5
5FC7
330
5926
100
AcDbEntity
  8
尺寸标注层
 62
     0
440
 16777216
100
AcDbMText
 10
200.728416986484
 20
69.8665691814025
 30
0.0
 40
2.0
 41
0.0
 71
     5
 72
     1
  1
\A1;%%C2
  7
尺寸标注用文字
 11
0.0000000000000001
 21
1.0
 31
0.0
 73
     1
 44
1.0
  0
POINT
  5
5FC8
330
5926
100
AcDbEntity
  8
Defpoints
 62
     0
440
 16777216
100
AcDbPoint
 10
206.56080225407
 20
73.67306264706804
 30
0.0
  0
POINT
  5
5FC9
330
5926
100
AcDbEntity
  8
Defpoints
 62
     0
440
 16777216
100
AcDbPoint
 10
206.56080225407
 20
65.67306264706804
 30
0.0
  0
POINT
  5
5FCA
330
5926
100
AcDbEntity
  8
Defpoints
 62
     0
440
 16777216
100
AcDbPoint
 10
202.2284169864841
 20
65.67306264706804
 30
0.0
  0
ENDBLK
  5
5928
330
5926
100
AcDbEntity
  8
0
100
AcDbBlockEnd
  0
BLOCK
  5
597E
330
597D
100
AcDbEntity
  8
0
100
AcDbBlockBegin
  2
*D53
 70
     1
 10
0.0
 20
0.0
 30
0.0
  3
*D53
  1

  0
LINE
  5
602F
330
597D
100
AcDbEntity
  8
尺寸标注层
 62
     0
440
 16777216
370
    -2
100
AcDbLine
 10
222.2871870893657
 20
78.23093610892311
 30
0.0
 11
216.6871870893651
 21
78.23093610892309
 31
0.0
  0
LINE
  5
6030
330
597D
100
AcDbEntity
  8
尺寸标注层
 62
     0
440
 16777216
370
    -2
100
AcDbLine
 10
216.6871870893651
 20
78.23093610892309
 30
0.0
 11
212.1563390760585
 21
74.10149266640951
 31
0.0
  0
MTEXT
  5
6031
330
597D
100
AcDbEntity
  8
尺寸标注层
 62
     0
440
 16777216
100
AcDbMText
 10
219.7371870893658
 20
79.7309361089231
 30
0.0
 40
2.0
 41
0.0
 71
     5
 72
     1
  1
\A1;R0.3
  7
尺寸标注用文字
 73
     1
 44
1.0
  0
LINE
  5
6032
330
597D
100
AcDbEntity
  8
尺寸标注层
 62
     0
440
 16777216
370
    -2
100
AcDbLine
 10
210.1608022540701
 20
72.2827478266679
 30
0.0
 11
211.047707508287
 21
73.09107886655297
 31
0.0
  0
SOLID
  5
6033
330
597D
100
AcDbEntity
  8
尺寸标注层
 62
     0
440
 16777216
100
AcDbTrace
 10
211.9879367760824
 20
74.28626459437143
 30
0.0
 11
212.3247413760346
 21
73.91672073844759
 31
0.0
 12
211.047707508287
 22
73.09107886655297
 32
0.0
 13
211.047707508287
 23
73.09107886655297
 33
0.0
  0
POINT
  5
6034
330
597D
100
AcDbEntity
  8
Defpoints
 62
     0
440
 16777216
100
AcDbPoint
 10
211.047707508287
 20
73.09107886655297
 30
0.0
  0
POINT
  5
6035
330
597D
100
AcDbEntity
  8
Defpoints
 62
     0
440
 16777216
100
AcDbPoint
 10
210.1608022540701
 20
72.2827478266679
 30
0.0
  0
ENDBLK
  5
597F
330
597D
100
AcDbEntity
  8
0
100
AcDbBlockEnd
  0
BLOCK
  5
59D0
330
59CF
100
AcDbEntity
  8
0
100
AcDbBlockBegin
  2
*D54
 70
     1
 10
0.0
 20
0.0
 30
0.0
  3
*D54
  1

  0
LINE
  5
61BD
330
59CF
100
AcDbEntity
  8
尺寸标注层
 62
     0
370
    -2
100
AcDbLine
 10
206.0614874866919
 20
73.69923062517364
 30
0.0
 11
198.5274433388674
 21
74.09407314774154
 31
0.0
  0
LINE
  5
61BE
330
59CF
100
AcDbEntity
  8
尺寸标注层
 62
     0
370
    -2
100
AcDbLine
 10
206.0614874866948
 20
65.64689466890803
 30
0.0
 11
198.5274433393488
 21
65.25205214554247
 31
0.0
  0
ARC
  5
61BF
330
59CF
100
AcDbEntity
  8
尺寸标注层
 62
     0
370
    -2
100
AcDbCircle
 10
282.8853489718538
 20
69.6730626512351
 30
0.0
 40
83.9736738670342
100
AcDbArc
 50
177.8187747115635
 51
182.1812252946758
  0
SOLID
  5
61C0
330
59CF
100
AcDbEntity
  8
尺寸标注层
 62
     0
100
AcDbTrace
 10
198.7727233294309
 20
72.87817144641516
 30
0.0
 11
199.1723145248979
 21
72.8600917200548
 31
0.0
 12
199.0267581062455
 22
74.06790516963592
 32
0.0
 13
199.0267581062455
 23
74.06790516963592
 33
0.0
  0
SOLID
  5
61C1
330
59CF
100
AcDbEntity
  8
尺寸标注层
 62
     0
100
AcDbTrace
 10
199.172314525245
 20
66.48603357329946
 30
0.0
 11
198.7727233297799
 21
66.46795384689555
 31
0.0
 12
199.0267581067241
 22
65.27822012370247
 32
0.0
 13
199.0267581067241
 23
65.27822012370247
 33
0.0
  0
MTEXT
  5
61C2
330
59CF
100
AcDbEntity
  8
尺寸标注层
 62
     0
100
AcDbMText
 10
197.4131207150778
 20
70.17017546510932
 30
0.0
 40
2.0
 41
0.0
 71
     5
 72
     1
  1
\A1;6\U+00B0
  7
尺寸标注用文字
 11
0.0058159757429814
 21
0.999983087070055
 31
0.0
 73
     1
 44
1.0
  0
POINT
  5
61C3
330
59CF
100
AcDbEntity
  8
Defpoints
 62
     0
100
AcDbPoint
 10
198.924464702176
 20
68.20751995966934
 30
0.0
  0
POINT
  5
61C4
330
59CF
100
AcDbEntity
  8
Defpoints
 62
     0
100
AcDbPoint
 10
210.2236054016699
 20
65.86502202626798
 30
0.0
  0
POINT
  5
61C5
330
59CF
100
AcDbEntity
  8
Defpoints
 62
     0
100
AcDbPoint
 10
210.2236054016699
 20
73.48110326826804
 30
0.0
  0
POINT
  5
61C6
330
59CF
100
AcDbEntity
  8
Defpoints
 62
     0
100
AcDbPoint
 10
206.56080225407
 20
73.67306264706804
 30
0.0
  0
POINT
  5
61C7
330
59CF
100
AcDbEntity
  8
Defpoints
 62
     0
100
AcDbPoint
 10
206.56080225407
 20
65.67306264706804
 30
0.0
  0
ENDBLK
  5
59D1
330
59CF
100
AcDbEntity
  8
0
100
AcDbBlockEnd
  0
BLOCK
  5
59EC
330
59EB
100
AcDbEntity
  8
0
100
AcDbBlockBegin
  2
*D55
 70
     1
 10
0.0
 20
0.0
 30
0.0
  3
*D55
  1

  0
LINE
  5
5FDD
330
59EB
100
AcDbEntity
  8
尺寸标注层
 62
     0
440
 16777216
370
    -2
100
AcDbLine
 10
215.3608022540701
 20
57.17306264706792
 30
0.0
 11
215.3608022540701
 21
53.85023754783038
 31
0.0
  0
LINE
  5
5FDE
330
59EB
100
AcDbEntity
  8
尺寸标注层
 62
     0
440
 16777216
370
    -2
100
AcDbLine
 10
224.1608022540701
 20
65.55545529386802
 30
0.0
 11
224.1608022540701
 21
53.85023754783038
 31
0.0
  0
LINE
  5
5FDF
330
59EB
100
AcDbEntity
  8
尺寸标注层
 62
     0
440
 16777216
370
    -2
100
AcDbLine
 10
216.5608022540701
 20
54.35023754783038
 30
0.0
 11
222.9608022540701
 21
54.35023754783038
 31
0.0
  0
LINE
  5
5FE0
330
59EB
100
AcDbEntity
  8
尺寸标注层
 62
     0
440
 16777216
370
    -2
100
AcDbLine
 10
224.1608022540701
 20
54.35023754783038
 30
0.0
 11
235.1808022540701
 21
54.35023754783038
 31
0.0
  0
SOLID
  5
5FE1
330
59EB
100
AcDbEntity
  8
尺寸标注层
 62
     0
440
 16777216
100
AcDbTrace
 10
216.5608022540701
 20
54.55023754783038
 30
0.0
 11
216.5608022540701
 21
54.15023754783037
 31
0.0
 12
215.3608022540701
 22
54.35023754783038
 32
0.0
 13
215.3608022540701
 23
54.35023754783038
 33
0.0
  0
SOLID
  5
5FE2
330
59EB
100
AcDbEntity
  8
尺寸标注层
 62
     0
440
 16777216
100
AcDbTrace
 10
222.9608022540701
 20
54.55023754783038
 30
0.0
 11
222.9608022540701
 21
54.15023754783037
 31
0.0
 12
224.1608022540701
 22
54.35023754783038
 32
0.0
 13
224.1608022540701
 23
54.35023754783038
 33
0.0
  0
MTEXT
  5
5FE3
330
59EB
100
AcDbEntity
  8
尺寸标注层
 62
     0
440
 16777216
100
AcDbMText
 10
230.2708022540701
 20
56.4835708811637
 30
0.0
 40
2.0
 41
0.0
 71
     5
 72
     1
  1
\A1;2.2{\H0.7x;\S 0^ -0.05;}
  7
尺寸标注用文字
 73
     1
 44
1.0
  0
POINT
  5
5FE4
330
59EB
100
AcDbEntity
  8
Defpoints
 62
     0
440
 16777216
100
AcDbPoint
 10
215.3608022540701
 20
57.67306264706792
 30
0.0
  0
POINT
  5
5FE5
330
59EB
100
AcDbEntity
  8
Defpoints
 62
     0
440
 16777216
100
AcDbPoint
 10
224.1608022540701
 20
66.05545529386802
 30
0.0
  0
POINT
  5
5FE6
330
59EB
100
AcDbEntity
  8
Defpoints
 62
     0
440
 16777216
100
AcDbPoint
 10
224.1608022540701
 20
54.35023754783038
 30
0.0
  0
ENDBLK
  5
59ED
330
59EB
100
AcDbEntity
  8
0
100
AcDbBlockEnd
  0
BLOCK
  5
5A04
330
5A03
100
AcDbEntity
  8
0
100
AcDbBlockBegin
  2
*D56
 70
     1
 10
0.0
 20
0.0
 30
0.0
  3
*D56
  1

  0
LINE
  5
5FE7
330
5A03
100
AcDbEntity
  8
尺寸标注层
 62
     0
440
 16777216
370
    -2
100
AcDbLine
 10
214.86080225407
 20
73.67306264706804
 30
0.0
 11
212.4460224688885
 21
73.67306264706804
 31
0.0
  0
LINE
  5
5FE8
330
5A03
100
AcDbEntity
  8
尺寸标注层
 62
     0
440
 16777216
370
    -2
100
AcDbLine
 10
214.86080225407
 20
65.67306264706804
 30
0.0
 11
212.4460224688885
 21
65.67306264706804
 31
0.0
  0
LINE
  5
5FE9
330
5A03
100
AcDbEntity
  8
尺寸标注层
 62
     0
440
 16777216
370
    -2
100
AcDbLine
 10
212.9460224688886
 20
66.87306264706804
 30
0.0
 11
212.9460224688886
 21
72.47306264706804
 31
0.0
  0
LINE
  5
5FEA
330
5A03
100
AcDbEntity
  8
尺寸标注层
 62
     0
440
 16777216
370
    -2
100
AcDbLine
 10
212.9460224688886
 20
73.67306264706804
 30
0.0
 11
212.9460224688886
 21
87.8525440527181
 31
0.0
  0
SOLID
  5
5FEB
330
5A03
100
AcDbEntity
  8
尺寸标注层
 62
     0
440
 16777216
100
AcDbTrace
 10
212.7460224688885
 20
66.87306264706804
 30
0.0
 11
213.1460224688885
 21
66.87306264706804
 31
0.0
 12
212.9460224688886
 22
65.67306264706804
 32
0.0
 13
212.9460224688886
 23
65.67306264706804
 33
0.0
  0
SOLID
  5
5FEC
330
5A03
100
AcDbEntity
  8
尺寸标注层
 62
     0
440
 16777216
100
AcDbTrace
 10
212.7460224688885
 20
72.47306264706804
 30
0.0
 11
213.1460224688885
 21
72.47306264706804
 31
0.0
 12
212.9460224688886
 22
73.67306264706804
 32
0.0
 13
212.9460224688886
 23
73.67306264706804
 33
0.0
  0
MTEXT
  5
5FED
330
5A03
100
AcDbEntity
  8
尺寸标注层
 62
     0
440
 16777216
100
AcDbMText
 10
210.8126891355552
 20
83.24254405271814
 30
0.0
 40
2.0
 41
0.0
 71
     5
 72
     1
  1
\A1;%%C2{\H0.7x;\S 0^ -0.02;}
  7
尺寸标注用文字
 11
0.0000000000000001
 21
1.0
 31
0.0
 73
     1
 44
1.0
 90
        3
 63
     9
421
 13158600
 45
1.1
441
        0
  0
POINT
  5
5FEE
330
5A03
100
AcDbEntity
  8
Defpoints
 62
     0
440
 16777216
100
AcDbPoint
 10
215.36080225407
 20
73.67306264706804
 30
0.0
  0
POINT
  5
5FEF
330
5A03
100
AcDbEntity
  8
Defpoints
 62
     0
440
 16777216
100
AcDbPoint
 10
215.36080225407
 20
65.67306264706804
 30
0.0
  0
POINT
  5
5FF0
330
5A03
100
AcDbEntity
  8
Defpoints
 62
     0
440
 16777216
100
AcDbPoint
 10
212.9460224688886
 20
65.67306264706804
 30
0.0
  0
ENDBLK
  5
5A05
330
5A03
100
AcDbEntity
  8
0
100
AcDbBlockEnd
  0
BLOCK
  5
5A54
330
5A53
100
AcDbEntity
  8
0
100
AcDbBlockBegin
  2
*D57
 70
     1
 10
0.0
 20
0.0
 30
0.0
  3
*D57
  1

  0
LINE
  5
5FF1
330
5A53
100
AcDbEntity
  8
尺寸标注层
 62
     0
440
 16777216
370
    -2
100
AcDbLine
 10
211.3608022540701
 20
66.56337746786801
 30
0.0
 11
211.3608022540701
 21
53.85023754783038
 31
0.0
  0
LINE
  5
5FF2
330
5A53
100
AcDbEntity
  8
尺寸标注层
 62
     0
440
 16777216
370
    -2
100
AcDbLine
 10
206.56080225407
 20
61.01463142531956
 30
0.0
 11
206.56080225407
 21
53.85023754783038
 31
0.0
  0
LINE
  5
5FF3
330
5A53
100
AcDbEntity
  8
尺寸标注层
 62
     0
440
 16777216
370
    -2
100
AcDbLine
 10
210.1608022540701
 20
54.35023754783038
 30
0.0
 11
207.76080225407
 21
54.35023754783038
 31
0.0
  0
LINE
  5
5FF4
330
5A53
100
AcDbEntity
  8
尺寸标注层
 62
     0
440
 16777216
370
    -2
100
AcDbLine
 10
206.56080225407
 20
54.35023754783038
 30
0.0
 11
200.76080225407
 21
54.35023754783038
 31
0.0
  0
SOLID
  5
5FF5
330
5A53
100
AcDbEntity
  8
尺寸标注层
 62
     0
440
 16777216
100
AcDbTrace
 10
210.1608022540701
 20
54.55023754783038
 30
0.0
 11
210.1608022540701
 21
54.15023754783037
 31
0.0
 12
211.3608022540701
 22
54.35023754783038
 32
0.0
 13
211.3608022540701
 23
54.35023754783038
 33
0.0
  0
SOLID
  5
5FF6
330
5A53
100
AcDbEntity
  8
尺寸标注层
 62
     0
440
 16777216
100
AcDbTrace
 10
207.76080225407
 20
54.55023754783038
 30
0.0
 11
207.76080225407
 21
54.15023754783037
 31
0.0
 12
206.56080225407
 22
54.35023754783038
 32
0.0
 13
206.56080225407
 23
54.35023754783038
 33
0.0
  0
MTEXT
  5
5FF7
330
5A53
100
AcDbEntity
  8
尺寸标注层
 62
     0
440
 16777216
100
AcDbMText
 10
202.76080225407
 20
55.85023754783037
 30
0.0
 40
2.0
 41
0.0
 71
     5
 72
     1
  1
\A1;1.2
  7
尺寸标注用文字
 73
     1
 44
1.0
  0
POINT
  5
5FF8
330
5A53
100
AcDbEntity
  8
Defpoints
 62
     0
440
 16777216
100
AcDbPoint
 10
211.3608022540701
 20
67.063377467868
 30
0.0
  0
POINT
  5
5FF9
330
5A53
100
AcDbEntity
  8
Defpoints
 62
     0
440
 16777216
100
AcDbPoint
 10
206.56080225407
 20
61.51463142531956
 30
0.0
  0
POINT
  5
5FFA
330
5A53
100
AcDbEntity
  8
Defpoints
 62
     0
440
 16777216
100
AcDbPoint
 10
206.56080225407
 20
54.35023754783038
 30
0.0
  0
ENDBLK
  5
5A55
330
5A53
100
AcDbEntity
  8
0
100
AcDbBlockEnd
  0
BLOCK
  5
5AD2
330
5AD1
100
AcDbEntity
  8
0
100
AcDbBlockBegin
  2
*D58
 70
     1
 10
0.0
 20
0.0
 30
0.0
  3
*D58
  1

  0
LINE
  5
5FFB
330
5AD1
100
AcDbEntity
  8
尺寸标注层
 62
     0
440
 16777216
370
    -2
100
AcDbLine
 10
217.36080225407
 20
65.17306264706803
 30
0.0
 11
217.36080225407
 21
59.61308244650183
 31
0.0
  0
LINE
  5
5FFC
330
5AD1
100
AcDbEntity
  8
尺寸标注层
 62
     0
440
 16777216
370
    -2
100
AcDbLine
 10
215.36080225407
 20
65.17306264706807
 30
0.0
 11
215.36080225407
 21
59.61308244650183
 31
0.0
  0
LINE
  5
5FFD
330
5AD1
100
AcDbEntity
  8
尺寸标注层
 62
     0
440
 16777216
370
    -2
100
AcDbLine
 10
214.16080225407
 20
60.11308244650184
 30
0.0
 11
212.96080225407
 21
60.11308244650184
 31
0.0
  0
LINE
  5
5FFE
330
5AD1
100
AcDbEntity
  8
尺寸标注层
 62
     0
440
 16777216
370
    -2
100
AcDbLine
 10
218.56080225407
 20
60.11308244650184
 30
0.0
 11
224.06080225407
 21
60.11308244650184
 31
0.0
  0
LINE
  5
5FFF
330
5AD1
100
AcDbEntity
  8
尺寸标注层
 62
     0
440
 16777216
370
    -2
100
AcDbLine
 10
215.36080225407
 20
60.11308244650184
 30
0.0
 11
217.36080225407
 21
60.11308244650184
 31
0.0
  0
SOLID
  5
6000
330
5AD1
100
AcDbEntity
  8
尺寸标注层
 62
     0
440
 16777216
100
AcDbTrace
 10
214.16080225407
 20
60.31308244650183
 30
0.0
 11
214.16080225407
 21
59.91308244650183
 31
0.0
 12
215.36080225407
 22
60.11308244650184
 32
0.0
 13
215.36080225407
 23
60.11308244650184
 33
0.0
  0
SOLID
  5
6001
330
5AD1
100
AcDbEntity
  8
尺寸标注层
 62
     0
440
 16777216
100
AcDbTrace
 10
218.56080225407
 20
60.31308244650183
 30
0.0
 11
218.56080225407
 21
59.91308244650183
 31
0.0
 12
217.36080225407
 22
60.11308244650184
 32
0.0
 13
217.36080225407
 23
60.11308244650184
 33
0.0
  0
MTEXT
  5
6002
330
5AD1
100
AcDbEntity
  8
尺寸标注层
 62
     0
440
 16777216
100
AcDbMText
 10
221.91080225407
 20
61.61308244650183
 30
0.0
 40
2.0
 41
0.0
 71
     5
 72
     1
  1
\A1;0.5
  7
尺寸标注用文字
 73
     1
 44
1.0
  0
POINT
  5
6003
330
5AD1
100
AcDbEntity
  8
Defpoints
 62
     0
440
 16777216
100
AcDbPoint
 10
217.36080225407
 20
65.67306264706804
 30
0.0
  0
POINT
  5
6004
330
5AD1
100
AcDbEntity
  8
Defpoints
 62
     0
440
 16777216
100
AcDbPoint
 10
215.36080225407
 20
65.67306264706807
 30
0.0
  0
POINT
  5
6005
330
5AD1
100
AcDbEntity
  8
Defpoints
 62
     0
440
 16777216
100
AcDbPoint
 10
215.36080225407
 20
60.11308244650184
 30
0.0
  0
ENDBLK
  5
5AD3
330
5AD1
100
AcDbEntity
  8
0
100
AcDbBlockEnd
  0
BLOCK
  5
5B49
330
5B48
100
AcDbEntity
  8
0
100
AcDbBlockBegin
  2
*D59
 70
     1
 10
0.0
 20
0.0
 30
0.0
  3
*D59
  1

  0
LINE
  5
6006
330
5B48
100
AcDbEntity
  8
尺寸标注层
 62
     0
440
 16777216
370
    -2
100
AcDbLine
 10
223.8037791000009
 20
65.22252581701173
 30
0.0
 11
234.2268718590879
 21
64.49367217010973
 31
0.0
  0
LINE
  5
6007
330
5B48
100
AcDbEntity
  8
尺寸标注层
 62
     0
440
 16777216
370
    -2
100
AcDbLine
 10
223.8037790999986
 20
74.12359947755771
 30
0.0
 11
234.2268718587412
 21
74.85245312513696
 31
0.0
  0
ARC
  5
6008
330
5B48
100
AcDbEntity
  8
尺寸标注层
 62
     0
440
 16777216
370
    -2
100
AcDbCircle
 10
160.1581372286529
 20
69.67306264514355
 30
0.0
 40
73.74960293123916
100
AcDbArc
 50
356.9322856165324
 51
3.067714387303999
  0
SOLID
  5
6009
330
5B48
100
AcDbEntity
  8
尺寸标注层
 62
     0
440
 16777216
100
AcDbTrace
 10
234.0016755591704
 20
65.71394099700768
 30
0.0
 11
233.6024361394156
 21
65.73859633545303
 31
0.0
 12
233.728089833957
 22
64.52855040696597
 32
0.0
 13
233.728089833957
 23
64.52855040696597
 33
0.0
  0
SOLID
  5
600A
330
5B48
100
AcDbEntity
  8
尺寸标注层
 62
     0
440
 16777216
100
AcDbTrace
 10
233.6024361391521
 20
73.60752895975185
 30
0.0
 11
234.0016755589053
 21
73.63218429822393
 31
0.0
 12
233.7280898336125
 22
74.8175748882473
 32
0.0
 13
233.7280898336125
 23
74.8175748882473
 33
0.0
  0
MTEXT
  5
600B
102
{ACAD_XDICTIONARY
360
618B
102
}
330
5B48
100
AcDbEntity
  8
尺寸标注层
 62
     0
440
 16777216
100
AcDbMText
 10
235.4070689649154
 20
69.99088942259911
 30
0.0
 40
2.0
 41
0.0
 71
     5
 72
     1
  1
\A1;8\U+00B0
  7
尺寸标注用文字
 11
0.0042236339472232
 21
-0.9999910804183604
 31
0.0
 73
     1
 44
1.0
  0
POINT
  5
600C
330
5B48
100
AcDbEntity
  8
Defpoints
 62
     0
440
 16777216
100
AcDbPoint
 10
233.8877718044437
 20
67.95698635435825
 30
0.0
  0
POINT
  5
600D
330
5B48
100
AcDbEntity
  8
Defpoints
 62
     0
440
 16777216
100
AcDbPoint
 10
217.36080225407
 20
73.67306264706804
 30
0.0
  0
POINT
  5
600E
330
5B48
100
AcDbEntity
  8
Defpoints
 62
     0
440
 16777216
100
AcDbPoint
 10
217.36080225407
 20
65.67306264706804
 30
0.0
  0
POINT
  5
600F
330
5B48
100
AcDbEntity
  8
Defpoints
 62
     0
440
 16777216
100
AcDbPoint
 10
223.3049970748699
 20
65.25740405386796
 30
0.0
  0
POINT
  5
6010
330
5B48
100
AcDbEntity
  8
Defpoints
 62
     0
440
 16777216
100
AcDbPoint
 10
223.3049970748699
 20
74.08872124066808
 30
0.0
  0
ENDBLK
  5
5B4A
330
5B48
100
AcDbEntity
  8
0
100
AcDbBlockEnd
  0
BLOCK
  5
5B7B
330
5B7A
100
AcDbEntity
  8
0
100
AcDbBlockBegin
  2
*D60
 70
     1
 10
0.0
 20
0.0
 30
0.0
  3
*D60
  1

  0
LINE
  5
6011
330
5B7A
100
AcDbEntity
  8
尺寸标注层
 62
     0
440
 16777216
370
    -2
100
AcDbLine
 10
224.6570753298899
 20
67.41212797535856
 30
0.0
 11
230.4753431420345
 21
66.69773451674733
 31
0.0
  0
LINE
  5
6012
330
5B7A
100
AcDbEntity
  8
尺寸标注层
 62
     0
440
 16777216
370
    -2
100
AcDbLine
 10
224.6570753298929
 20
71.93399731875335
 30
0.0
 11
230.4753431421793
 21
72.64839077709462
 31
0.0
  0
ARC
  5
6013
330
5B7A
100
AcDbEntity
  8
尺寸标注层
 62
     0
440
 16777216
370
    -2
100
AcDbCircle
 10
206.2432401109671
 20
69.67306264751055
 30
0.0
 40
23.91408189537302
100
AcDbArc
 50
347.2492334601942
 51
350.1246167297015
  0
ARC
  5
6014
330
5B7A
100
AcDbEntity
  8
尺寸标注层
 62
     0
440
 16777216
370
    -2
100
AcDbCircle
 10
206.2432401109671
 20
69.67306264751055
 30
0.0
 40
23.91408189537302
100
AcDbArc
 50
9.875383267510484
 51
12.75076653701785
  0
ARC
  5
6015
330
5B7A
100
AcDbEntity
  8
尺寸标注层
 62
     0
440
 16777216
370
    -2
100
AcDbCircle
 10
206.2432401109671
 20
69.67306264751055
 30
0.0
 40
23.91408189537302
100
AcDbArc
 50
352.9999999992089
 51
6.999999998003117
  0
SOLID
  5
6016
330
5B7A
100
AcDbEntity
  8
尺寸标注层
 62
     0
440
 16777216
100
AcDbTrace
 10
229.6051543228662
 20
65.60100472200885
 30
0.0
 11
230.0008247305438
 21
65.54231120883895
 31
0.0
 12
229.9790700662147
 22
66.75866918845676
 32
0.0
 13
229.9790700662147
 23
66.75866918845676
 33
0.0
  0
SOLID
  5
6017
330
5B7A
100
AcDbEntity
  8
尺寸标注层
 62
     0
440
 16777216
100
AcDbTrace
 10
230.0008247307448
 20
73.80381408502609
 30
0.0
 11
229.6051543230643
 21
73.74512057187544
 31
0.0
 12
229.9790700663566
 22
72.58745610540933
 32
0.0
 13
229.9790700663566
 23
72.58745610540933
 33
0.0
  0
MTEXT
  5
6018
102
{ACAD_XDICTIONARY
360
618D
102
}
330
5B7A
100
AcDbEntity
  8
尺寸标注层
 62
     0
440
 16777216
100
AcDbMText
 10
231.6571968024522
 20
69.75283650314223
 30
0.0
 40
2.0
 41
0.0
 71
     5
 72
     1
  1
\A1;14\U+00B0
  7
尺寸标注用文字
 11
0.0031389627199649
 21
-0.9999950734443858
 31
0.0
 73
     1
 44
1.0
  0
POINT
  5
6019
330
5B7A
100
AcDbEntity
  8
Defpoints
 62
     0
440
 16777216
100
AcDbPoint
 10
230.137494321839
 20
68.69944639618886
 30
0.0
  0
POINT
  5
601A
330
5B7A
100
AcDbEntity
  8
Defpoints
 62
     0
440
 16777216
100
AcDbPoint
 10
216.06330677927
 20
68.46731007346807
 30
0.0
  0
POINT
  5
601B
330
5B7A
100
AcDbEntity
  8
Defpoints
 62
     0
440
 16777216
100
AcDbPoint
 10
216.06330677927
 20
70.87881522106797
 30
0.0
  0
POINT
  5
601C
330
5B7A
100
AcDbEntity
  8
Defpoints
 62
     0
440
 16777216
100
AcDbPoint
 10
224.1608022540701
 20
71.87306264706808
 30
0.0
  0
POINT
  5
601D
330
5B7A
100
AcDbEntity
  8
Defpoints
 62
     0
440
 16777216
100
AcDbPoint
 10
224.1608022540701
 20
67.47306264706799
 30
0.0
  0
ENDBLK
  5
5B7C
330
5B7A
100
AcDbEntity
  8
0
100
AcDbBlockEnd
  0
BLOCK
  5
5BBE
330
5BBD
100
AcDbEntity
  8
0
100
AcDbBlockBegin
  2
*D61
 70
     1
 10
0.0
 20
0.0
 30
0.0
  3
*D61
  1

  0
LINE
  5
601E
330
5BBD
100
AcDbEntity
  8
尺寸标注层
 62
     0
440
 16777216
370
    -2
100
AcDbLine
 10
224.6608022540701
 20
67.47306264706799
 30
0.0
 11
228.0369793914708
 21
67.47306264706799
 31
0.0
  0
LINE
  5
601F
330
5BBD
100
AcDbEntity
  8
尺寸标注层
 62
     0
440
 16777216
370
    -2
100
AcDbLine
 10
224.6608022540701
 20
71.87306264706808
 30
0.0
 11
228.0369793914708
 21
71.87306264706808
 31
0.0
  0
LINE
  5
6020
330
5BBD
100
AcDbEntity
  8
尺寸标注层
 62
     0
440
 16777216
370
    -2
100
AcDbLine
 10
227.5369793914709
 20
68.67306264706799
 30
0.0
 11
227.5369793914709
 21
70.67306264706807
 31
0.0
  0
LINE
  5
6021
330
5BBD
100
AcDbEntity
  8
尺寸标注层
 62
     0
440
 16777216
370
    -2
100
AcDbLine
 10
227.5369793914709
 20
71.87306264706808
 30
0.0
 11
227.5369793914709
 21
79.47076683577091
 31
0.0
  0
SOLID
  5
6022
330
5BBD
100
AcDbEntity
  8
尺寸标注层
 62
     0
440
 16777216
100
AcDbTrace
 10
227.3369793914709
 20
68.67306264706799
 30
0.0
 11
227.7369793914708
 21
68.67306264706799
 31
0.0
 12
227.5369793914709
 22
67.47306264706799
 32
0.0
 13
227.5369793914709
 23
67.47306264706799
 33
0.0
  0
SOLID
  5
6023
330
5BBD
100
AcDbEntity
  8
尺寸标注层
 62
     0
440
 16777216
100
AcDbTrace
 10
227.3369793914709
 20
70.67306264706807
 30
0.0
 11
227.7369793914708
 21
70.67306264706807
 31
0.0
 12
227.5369793914709
 22
71.87306264706808
 32
0.0
 13
227.5369793914709
 23
71.87306264706808
 33
0.0
  0
MTEXT
  5
6024
330
5BBD
100
AcDbEntity
  8
尺寸标注层
 62
     0
440
 16777216
100
AcDbMText
 10
226.0369793914708
 20
76.87076683577095
 30
0.0
 40
2.0
 41
0.0
 71
     5
 72
     1
  1
\A1;%%C1.1
  7
尺寸标注用文字
 11
0.0000000000000001
 21
1.0
 31
0.0
 73
     1
 44
1.0
 90
        3
 63
     9
421
 13158600
 45
1.1
441
        0
  0
POINT
  5
6025
330
5BBD
100
AcDbEntity
  8
Defpoints
 62
     0
440
 16777216
100
AcDbPoint
 10
224.1608022540701
 20
67.47306264706799
 30
0.0
  0
POINT
  5
6026
330
5BBD
100
AcDbEntity
  8
Defpoints
 62
     0
440
 16777216
100
AcDbPoint
 10
224.1608022540701
 20
71.87306264706808
 30
0.0
  0
POINT
  5
6027
330
5BBD
100
AcDbEntity
  8
Defpoints
 62
     0
440
 16777216
100
AcDbPoint
 10
227.5369793914709
 20
71.87306264706808
 30
0.0
  0
ENDBLK
  5
5BBF
330
5BBD
100
AcDbEntity
  8
0
100
AcDbBlockEnd
  0
BLOCK
  5
5BFC
330
5BFB
100
AcDbEntity
  8
0
100
AcDbBlockBegin
  2
*D62
 70
     1
 10
0.0
 20
0.0
 30
0.0
  3
*D62
  1

  0
LINE
  5
6036
330
5BFB
100
AcDbEntity
  8
尺寸标注层
 62
     0
440
 16777216
370
    -2
100
AcDbLine
 10
232.4341567755671
 20
61.15729801896795
 30
0.0
 11
226.8341567755672
 21
61.15729801896794
 31
0.0
  0
LINE
  5
6037
330
5BFB
100
AcDbEntity
  8
尺寸标注层
 62
     0
440
 16777216
370
    -2
100
AcDbLine
 10
226.8341567755672
 20
61.15729801896794
 30
0.0
 11
224.691217937995
 21
64.1792905601715
 31
0.0
  0
MTEXT
  5
6038
330
5BFB
100
AcDbEntity
  8
尺寸标注层
 62
     0
440
 16777216
100
AcDbMText
 10
229.8841567755672
 20
62.65729801896793
 30
0.0
 40
2.0
 41
0.0
 71
     5
 72
     1
  1
\A1;R0.2
  7
尺寸标注用文字
 73
     1
 44
1.0
  0
LINE
  5
6039
330
5BFB
100
AcDbEntity
  8
尺寸标注层
 62
     0
440
 16777216
370
    -2
100
AcDbLine
 10
223.36080225407
 20
66.05545529386801
 30
0.0
 11
223.8235555354352
 21
65.40287625606052
 31
0.0
  0
SOLID
  5
603A
330
5BFB
100
AcDbEntity
  8
尺寸标注层
 62
     0
440
 16777216
100
AcDbTrace
 10
224.8951488873098
 20
64.32390096059812
 30
0.0
 11
224.4872869886801
 21
64.03468015974486
 31
0.0
 12
223.8235555354352
 22
65.40287625606052
 32
0.0
 13
223.8235555354352
 23
65.40287625606052
 33
0.0
  0
POINT
  5
603B
330
5BFB
100
AcDbEntity
  8
Defpoints
 62
     0
440
 16777216
100
AcDbPoint
 10
223.8235555354352
 20
65.40287625606052
 30
0.0
  0
POINT
  5
603C
330
5BFB
100
AcDbEntity
  8
Defpoints
 62
     0
440
 16777216
100
AcDbPoint
 10
223.36080225407
 20
66.05545529386801
 30
0.0
  0
ENDBLK
  5
5BFD
330
5BFB
100
AcDbEntity
  8
0
100
AcDbBlockEnd
  0
ENDSEC
  0
SECTION
  2
ENTITIES
  0
LINE
  5
2470
330
1F
100
AcDbEntity
  8
细实线层
  6
Continuous
100
AcDbLine
 10
0.0
 20
265.1744804097983
 30
0.0
 11
0.0
 21
0.0
 31
0.0
  0
LINE
  5
2471
330
1F
100
AcDbEntity
  8
细实线层
  6
Continuous
100
AcDbLine
 10
374.9942147209269
 20
265.1744804097983
 30
0.0
 11
0.0
 21
265.1744804097983
 31
0.0
  0
LINE
  5
2472
330
1F
100
AcDbEntity
  8
轮廓线层
370
    15
100
AcDbLine
 10
370.5299978790112
 20
260.7102635678826
 30
0.0
 11
4.464216841915912
 21
260.7102635678826
 31
0.0
  0
LINE
  5
2473
330
1F
100
AcDbEntity
  8
细实线层
  6
Continuous
100
AcDbLine
 10
0.0
 20
0.0
 30
0.0
 11
374.9942147209269
 21
0.0
 31
0.0
  0
LINE
  5
2474
330
1F
100
AcDbEntity
  8
轮廓线层
370
    15
100
AcDbLine
 10
4.464216841915912
 20
4.464216841915805
 30
0.0
 11
370.5299978790112
 21
4.464216841915805
 31
0.0
  0
LINE
  5
2475
330
1F
100
AcDbEntity
  8
细实线层
  6
Continuous
100
AcDbLine
 10
316.9593957760217
 20
20.53539747281266
 30
0.0
 11
263.3887936730321
 21
20.53539747281266
 31
0.0
  0
LINE
  5
2476
330
1F
100
AcDbEntity
  8
轮廓线层
370
    15
100
AcDbLine
 10
370.5299978790112
 20
44.64216841915795
 30
0.0
 11
209.8181915700425
 21
44.64216841915795
 31
0.0
  0
LINE
  5
2477
330
1F
100
AcDbEntity
  8
细实线层
  6
Continuous
100
AcDbLine
 10
263.3887936730321
 20
4.464216841915805
 30
0.0
 11
263.3887936730321
 21
44.64216841915795
 31
0.0
  0
LINE
  5
2478
330
1F
100
AcDbEntity
  8
细实线层
  6
Continuous
100
AcDbLine
 10
249.9961431472847
 20
4.464216841915805
 30
0.0
 11
249.9961431472847
 21
22.32108420957896
 31
0.0
  0
LINE
  5
2479
330
1F
100
AcDbEntity
  8
细实线层
  6
Continuous
100
AcDbLine
 10
223.2108420957899
 20
4.464216841915805
 30
0.0
 11
223.2108420957899
 21
22.32108420957896
 31
0.0
  0
LINE
  5
247A
330
1F
100
AcDbEntity
  8
细实线层
  6
Continuous
100
AcDbLine
 10
236.6034926215372
 20
4.464216841915805
 30
0.0
 11
236.6034926215372
 21
22.32108420957896
 31
0.0
  0
LINE
  5
247B
330
1F
100
AcDbEntity
  8
细实线层
  6
Continuous
100
AcDbLine
 10
254.4603599892004
 20
22.32108420957896
 30
0.0
 11
254.4603599892004
 21
44.64216841915795
 31
0.0
  0
LINE
  5
247C
330
1F
100
AcDbEntity
  8
细实线层
  6
Continuous
100
AcDbLine
 10
224.103685464173
 20
22.32108420957896
 30
0.0
 11
224.103685464173
 21
44.64216841915795
 31
0.0
  0
LINE
  5
247D
330
1F
100
AcDbEntity
  8
细实线层
  6
Continuous
100
AcDbLine
 10
216.9609385171078
 20
22.32108420957896
 30
0.0
 11
216.9609385171078
 21
44.64216841915795
 31
0.0
  0
LINE
  5
247E
330
1F
100
AcDbEntity
  8
细实线层
  6
Continuous
100
AcDbLine
 10
241.9605528318362
 20
22.32108420957896
 30
0.0
 11
241.9605528318362
 21
44.64216841915795
 31
0.0
  0
LINE
  5
247F
330
1F
100
AcDbEntity
  8
细实线层
  6
Continuous
100
AcDbLine
 10
263.3887936730321
 20
17.85686736766318
 30
0.0
 11
209.8181915700425
 21
17.85686736766318
 31
0.0
  0
LINE
  5
2480
330
1F
100
AcDbEntity
  8
细实线层
  6
Continuous
100
AcDbLine
 10
263.3887936730321
 20
22.32108420957896
 30
0.0
 11
209.8181915700425
 21
22.32108420957896
 31
0.0
  0
LINE
  5
2481
330
1F
100
AcDbEntity
  8
细实线层
  6
Continuous
100
AcDbLine
 10
263.3887936730321
 20
8.928433683831611
 30
0.0
 11
209.8181915700425
 21
8.928433683831611
 31
0.0
  0
LINE
  5
2482
330
1F
100
AcDbEntity
  8
细实线层
  6
Continuous
100
AcDbLine
 10
263.3887936730321
 20
13.39265052574742
 30
0.0
 11
209.8181915700425
 21
13.39265052574742
 31
0.0
  0
LINE
  5
2483
330
1F
100
AcDbEntity
  8
细实线层
  6
Continuous
100
AcDbLine
 10
263.3887936730321
 20
26.78530105149473
 30
0.0
 11
209.8181915700425
 21
26.78530105149473
 31
0.0
  0
LINE
  5
2484
330
1F
100
AcDbEntity
  8
细实线层
  6
Continuous
100
AcDbLine
 10
263.3887936730321
 20
31.24951789341057
 30
0.0
 11
209.8181915700425
 21
31.24951789341057
 31
0.0
  0
LINE
  5
2485
330
1F
100
AcDbEntity
  8
细实线层
  6
Continuous
100
AcDbLine
 10
263.3887936730321
 20
35.71373473532634
 30
0.0
 11
209.8181915700425
 21
35.71373473532634
 31
0.0
  0
LINE
  5
2486
330
1F
100
AcDbEntity
  8
细实线层
  6
Continuous
100
AcDbLine
 10
209.8181915700425
 20
40.17795157724211
 30
0.0
 11
263.3887936730321
 21
40.17795157724211
 31
0.0
  0
LINE
  5
2487
330
1F
100
AcDbEntity
  8
细实线层
  6
Continuous
100
AcDbLine
 10
374.9942147209269
 20
0.0
 30
0.0
 11
374.9942147209269
 21
265.1744804097983
 31
0.0
  0
LINE
  5
2488
330
1F
100
AcDbEntity
  8
轮廓线层
370
    15
100
AcDbLine
 10
370.5299978790112
 20
4.464216841915805
 30
0.0
 11
370.5299978790112
 21
260.7102635678826
 31
0.0
  0
LINE
  5
2489
330
1F
100
AcDbEntity
  8
细实线层
  6
Continuous
100
AcDbLine
 10
316.9593957760217
 20
4.464216841915805
 30
0.0
 11
316.9593957760217
 21
44.64216841915795
 31
0.0
  0
LINE
  5
248A
330
1F
100
AcDbEntity
  8
细实线层
  6
Continuous
100
AcDbLine
 10
370.5299978790112
 20
16.07118063089685
 30
0.0
 11
316.9593957760217
 21
16.07118063089685
 31
0.0
  0
LINE
  5
248B
330
1F
100
AcDbEntity
  8
细实线层
  6
Continuous
100
AcDbLine
 10
370.5299978790112
 20
20.53539747281266
 30
0.0
 11
316.9593957760217
 21
20.53539747281266
 31
0.0
  0
LINE
  5
248C
330
1F
100
AcDbEntity
  8
细实线层
  6
Continuous
100
AcDbLine
 10
370.5299978790112
 20
27.67814441987791
 30
0.0
 11
316.9593957760217
 21
27.67814441987791
 31
0.0
  0
LINE
  5
248D
330
1F
100
AcDbEntity
  8
细实线层
  6
Continuous
100
AcDbLine
 10
370.5299978790112
 20
32.14236126179368
 30
0.0
 11
316.9593957760217
 21
32.14236126179368
 31
0.0
  0
LINE
  5
248E
330
1F
100
AcDbEntity
  8
细实线层
  6
Continuous
100
AcDbLine
 10
338.3876366172174
 20
32.14236126179368
 30
0.0
 11
338.3876366172174
 21
20.53539747281266
 31
0.0
  0
LINE
  5
248F
330
1F
100
AcDbEntity
  8
细实线层
  6
Continuous
100
AcDbLine
 10
363.9548900451237
 20
20.53539747281266
 30
0.0
 11
363.9548900451237
 21
32.14236126179368
 31
0.0
  0
LINE
  5
2490
330
1F
100
AcDbEntity
  8
细实线层
  6
Continuous
100
AcDbLine
 10
352.8476499182446
 20
32.14236126179368
 30
0.0
 11
352.8476499182446
 21
20.53539747281266
 31
0.0
  0
LINE
  5
2491
330
1F
100
AcDbEntity
  8
细实线层
  6
Continuous
100
AcDbLine
 10
331.2448896701521
 20
27.67814441987791
 30
0.0
 11
331.2448896701521
 21
20.53539747281266
 31
0.0
  0
LINE
  5
2492
330
1F
100
AcDbEntity
  8
细实线层
  6
Continuous
100
AcDbLine
 10
324.102142723087
 20
20.53539747281266
 30
0.0
 11
324.102142723087
 21
27.67814441987791
 31
0.0
  0
LINE
  5
2493
330
1F
100
AcDbEntity
  8
细实线层
  6
Continuous
100
AcDbLine
 10
343.7446968275163
 20
16.07118063089685
 30
0.0
 11
343.7446968275163
 21
20.53539747281266
 31
0.0
  0
LINE
  5
2494
330
1F
100
AcDbEntity
  8
轮廓线层
370
    15
100
AcDbLine
 10
4.464216841915912
 20
249.9961431472846
 30
0.0
 11
58.03481894490551
 21
249.9961431472846
 31
0.0
  0
LINE
  5
2495
330
1F
100
AcDbEntity
  8
轮廓线层
370
    15
100
AcDbLine
 10
58.03481894490551
 20
249.9961431472846
 30
0.0
 11
58.03481894490551
 21
260.7102635678826
 31
0.0
  0
LINE
  5
2496
330
1F
100
AcDbEntity
  8
轮廓线层
370
    15
100
AcDbLine
 10
4.464216841915912
 20
4.464216841915805
 30
0.0
 11
4.464216841915912
 21
260.7102635678826
 31
0.0
  0
LINE
  5
2497
330
1F
100
AcDbEntity
  8
轮廓线层
370
    15
100
AcDbLine
 10
209.8181915700425
 20
44.64216841915795
 30
0.0
 11
209.8181915700425
 21
4.464216841915805
 31
0.0
  0
TEXT
  5
2498
330
1F
100
AcDbEntity
  8
文字标准层
100
AcDbText
 10
210.1139902563536
 20
23.40069904909146
 30
0.0
 40
2.269087031563827
  1
标记
  7
宋体
 72
     1
 11
213.3411362567999
 21
23.40069904909146
 31
0.0
100
AcDbText
1001
ACAD
1000
ACAD_MTEXT_DEFINED_HEIGHT_BEGIN
1070
    46
1040
3.961674739929264
1000
ACAD_MTEXT_DEFINED_HEIGHT_END
  0
TEXT
  5
2499
330
1F
100
AcDbEntity
  8
文字标准层
100
AcDbText
 10
217.2898936013494
 20
23.43689540186375
 30
0.0
 40
2.269087031563827
  1
处数
  7
宋体
 72
     1
 11
220.5170396017957
 21
23.43689540186375
 31
0.0
100
AcDbText
1001
ACAD
1000
ACAD_MTEXT_DEFINED_HEIGHT_BEGIN
1070
    46
1040
3.961674739929264
1000
ACAD_MTEXT_DEFINED_HEIGHT_END
  0
TEXT
  5
249A
330
1F
100
AcDbEntity
  8
文字标准层
100
AcDbText
 10
224.7526192177787
 20
23.40069904909146
 30
0.0
 40
2.269087031563827
  1
更改文件号
  7
宋体
 72
     1
 11
232.8204842188945
 21
23.40069904909146
 31
0.0
100
AcDbText
1001
ACAD
1000
ACAD_MTEXT_DEFINED_HEIGHT_BEGIN
1070
    46
1040
3.961674739929264
1000
ACAD_MTEXT_DEFINED_HEIGHT_END
  0
TEXT
  5
249B
330
1F
100
AcDbEntity
  8
文字标准层
100
AcDbText
 10
243.390325487614
 20
23.43689540186375
 30
0.0
 40
2.269087031563827
  1
签  字
  7
宋体
 72
     1
 11
248.2310444882835
 21
23.43689540186375
 31
0.0
100
AcDbText
1001
ACAD
1000
ACAD_MTEXT_DEFINED_HEIGHT_BEGIN
1070
    46
1040
3.961674739929264
1000
ACAD_MTEXT_DEFINED_HEIGHT_END
  0
TEXT
  5
249C
330
1F
100
AcDbEntity
  8
文字标准层
100
AcDbText
 10
254.9269724044472
 20
23.40069904909146
 30
0.0
 40
2.269087031563827
  1
日 期
  7
宋体
 72
     1
 11
258.9609049050051
 21
23.40069904909146
 31
0.0
100
AcDbText
1001
ACAD
1000
ACAD_MTEXT_DEFINED_HEIGHT_BEGIN
1070
    46
1040
3.961674739929264
1000
ACAD_MTEXT_DEFINED_HEIGHT_END
  0
TEXT
  5
249D
330
1F
100
AcDbEntity
  8
文字标准层
100
AcDbText
 10
211.4926322507483
 20
18.99140708531692
 30
0.0
 40
2.269087031563827
  1
设  计
  7
宋体
 72
     1
 11
216.3333512514178
 21
18.99140708531692
 31
0.0
100
AcDbText
1001
ACAD
1000
ACAD_MTEXT_DEFINED_HEIGHT_BEGIN
1070
    46
1040
3.84440673393982
1000
ACAD_MTEXT_DEFINED_HEIGHT_END
  0
TEXT
  5
249E
330
1F
100
AcDbEntity
  8
文字标准层
100
AcDbText
 10
211.4926322507483
 20
5.634952912341797
 30
0.0
 40
2.269087031563827
  1
工  艺
  7
宋体
 72
     1
 11
216.3333512514178
 21
5.634952912341797
 31
0.0
100
AcDbText
1001
ACAD
1000
ACAD_MTEXT_DEFINED_HEIGHT_BEGIN
1070
    46
1040
3.84440673393982
1000
ACAD_MTEXT_DEFINED_HEIGHT_END
  0
TEXT
  5
249F
330
1F
100
AcDbEntity
  8
文字标准层
100
AcDbText
 10
211.4926322507483
 20
10.02677704871302
 30
0.0
 40
2.269087031563827
  1
审  核
  7
宋体
 72
     1
 11
216.3333512514178
 21
10.02677704871302
 31
0.0
100
AcDbText
1001
ACAD
1000
ACAD_MTEXT_DEFINED_HEIGHT_BEGIN
1070
    46
1040
3.84440673393982
1000
ACAD_MTEXT_DEFINED_HEIGHT_END
  0
TEXT
  5
24A0
330
1F
100
AcDbEntity
  8
文字标准层
100
AcDbText
 10
211.4926322507483
 20
14.47892843970473
 30
0.0
 40
2.269087031563827
  1
校  对
  7
宋体
 72
     1
 11
216.3333512514178
 21
14.47892843970473
 31
0.0
100
AcDbText
1001
ACAD
1000
ACAD_MTEXT_DEFINED_HEIGHT_BEGIN
1070
    46
1040
3.84440673393982
1000
ACAD_MTEXT_DEFINED_HEIGHT_END
  0
TEXT
  5
24A1
330
1F
100
AcDbEntity
  8
文字标准层
100
AcDbText
 10
238.4597208584892
 20
18.91901437977234
 30
0.0
 40
2.269087031563827
  1
标准化
  7
宋体
 72
     1
 11
243.3004398591588
 21
18.91901437977234
 31
0.0
100
AcDbText
1001
ACAD
1000
ACAD_MTEXT_DEFINED_HEIGHT_BEGIN
1070
    46
1040
3.84440673393982
1000
ACAD_MTEXT_DEFINED_HEIGHT_END
  0
TEXT
  5
24A2
330
1F
100
AcDbEntity
  8
文字标准层
100
AcDbText
 10
238.1884371377295
 20
14.49099389062882
 30
0.0
 40
2.269087031563827
  1
审  定
  7
宋体
 72
     1
 11
243.029156138399
 21
14.49099389062882
 31
0.0
100
AcDbText
1001
ACAD
1000
ACAD_MTEXT_DEFINED_HEIGHT_BEGIN
1070
    46
1040
3.84440673393982
1000
ACAD_MTEXT_DEFINED_HEIGHT_END
  0
TEXT
  5
24A3
330
1F
100
AcDbEntity
  8
文字标准层
100
AcDbText
 10
238.1884371377295
 20
10.00264614686479
 30
0.0
 40
2.269087031563827
  1
批  准
  7
宋体
 72
     1
 11
243.029156138399
 21
10.00264614686479
 31
0.0
100
AcDbText
1001
ACAD
1000
ACAD_MTEXT_DEFINED_HEIGHT_BEGIN
1070
    46
1040
3.84440673393982
1000
ACAD_MTEXT_DEFINED_HEIGHT_END
  0
TEXT
  5
24A4
330
1F
100
AcDbEntity
  8
文字标准层
100
AcDbText
 10
238.1761704560414
 20
5.526363854024923
 30
0.0
 40
2.269087031563827
  1
日  期
  7
宋体
 72
     1
 11
243.0168894567109
 21
5.526363854024923
 31
0.0
100
AcDbText
1001
ACAD
1000
ACAD_MTEXT_DEFINED_HEIGHT_BEGIN
1070
    46
1040
3.84440673393982
1000
ACAD_MTEXT_DEFINED_HEIGHT_END
  0
TEXT
  5
24A5
330
1F
100
AcDbEntity
  8
文字标准层
100
AcDbText
 10
319.0878184735189
 20
28.68787200480172
 30
0.0
 40
2.269087031563827
  1
图 样 标 记
  7
宋体
 72
     1
 11
327.9624699747463
 21
28.68787200480172
 31
0.0
100
AcDbText
1001
ACAD
1000
ACAD_MTEXT_DEFINED_HEIGHT_BEGIN
1070
    46
1040
3.657051484491091
1000
ACAD_MTEXT_DEFINED_HEIGHT_END
  0
TEXT
  5
24A6
330
1F
100
AcDbEntity
  8
文字标准层
100
AcDbText
 10
319.3379180435389
 20
21.82570326009205
 30
0.0
 40
4.364289352766454
  1
S
  7
宋体
 72
     1
 11
320.8896653689671
 21
21.82570326009205
 31
0.0
100
AcDbText
1001
ACAD
1000
ACAD_MTEXT_DEFINED_HEIGHT_BEGIN
1070
    46
1040
5.750929563048991
1000
ACAD_MTEXT_DEFINED_HEIGHT_END
  0
TEXT
  5
24A7
330
1F
100
AcDbEntity
  8
文字标准层
100
AcDbText
 10
321.4500350392516
 20
16.95842084660621
 30
0.0
 40
2.269087031563827
  1
共        张
  7
宋体
 72
     1
 11
331.1314730405905
 21
16.95842084660621
 31
0.0
100
AcDbText
1001
ACAD
1000
ACAD_MTEXT_DEFINED_HEIGHT_BEGIN
1070
    46
1040
3.657051484491091
1000
ACAD_MTEXT_DEFINED_HEIGHT_END
  0
TEXT
  5
24A8
330
1F
100
AcDbEntity
  8
文字标准层
100
AcDbText
 10
347.8835487564745
 20
16.95842084660621
 30
0.0
 40
2.269087031563827
  1
第        张
  7
宋体
 72
     1
 11
357.5649867578135
 21
16.95842084660621
 31
0.0
100
AcDbText
1001
ACAD
1000
ACAD_MTEXT_DEFINED_HEIGHT_BEGIN
1070
    46
1040
3.657051484491091
1000
ACAD_MTEXT_DEFINED_HEIGHT_END
  0
TEXT
  5
24A9
330
1F
100
AcDbEntity
  8
文字标准层
100
AcDbText
 10
340.7958583702965
 20
28.74519901756207
 30
0.0
 40
2.269087031563827
  1
重量(g)
  7
宋体
100
AcDbText
1001
ACAD
1000
ACAD_MTEXT_DEFINED_HEIGHT_BEGIN
1070
    46
1040
3.559311874420387
1000
ACAD_MTEXT_DEFINED_HEIGHT_END
  0
TEXT
  5
24AA
330
1F
100
AcDbEntity
  8
文字标准层
100
AcDbText
 10
354.7819269756415
 20
28.73302584904993
 30
0.0
 40
2.269087031563827
  1
比 例
  7
宋体
100
AcDbText
1001
ACAD
1000
ACAD_MTEXT_DEFINED_HEIGHT_BEGIN
1070
    46
1040
3.559311874420387
1000
ACAD_MTEXT_DEFINED_HEIGHT_END
  0
TEXT
  5
24AB
330
1F
100
AcDbEntity
  8
文字标准层
100
AcDbText
 10
355.5462817696807
 20
22.39557806368692
 30
0.0
 40
3.124951789341058
  1
1:1
  7
宋体
 72
     1
 11
358.8795636783112
 21
22.39557806368692
 31
0.0
100
AcDbText
1001
ACAD
1000
ACAD_MTEXT_DEFINED_HEIGHT_BEGIN
1070
    46
1040
3.559311874420387
1000
ACAD_MTEXT_DEFINED_HEIGHT_END
  0
TEXT
  5
24AD
330
1F
100
AcDbEntity
  8
文字标准层
100
AcDbText
 10
364.0688945349858
 20
28.73302584904993
 30
0.0
 40
2.269087031563827
  1
版本
  7
宋体
100
AcDbText
1001
ACAD
1000
ACAD_MTEXT_DEFINED_HEIGHT_BEGIN
1070
    46
1040
3.559311874420387
1000
ACAD_MTEXT_DEFINED_HEIGHT_END
  0
TEXT
  5
24AE
330
1F
100
AcDbEntity
  8
文字标准层
100
AcDbText
 10
366.2402720331257
 20
22.39557806368692
 30
0.0
 40
3.124951789341058
  1
1
  7
宋体
 72
     1
 11
367.3513660026692
 21
22.39557806368692
 31
0.0
100
AcDbText
1001
ACAD
1000
ACAD_MTEXT_DEFINED_HEIGHT_BEGIN
1070
    46
1040
3.559311874420387
1000
ACAD_MTEXT_DEFINED_HEIGHT_END
  0
TEXT
  5
24AF
330
1F
100
AcDbEntity
  8
文字标准层
 62
     4
370
    -3
100
AcDbText
 10
318.061117290698
 20
8.053787601480786
 30
0.0
 40
3.124951789341058
  1
上海友邦电气(集团)股份有限公司
 41
0.7818743936473157
  7
宋体
 72
     5
 11
370.1852727140181
 21
8.053787601480786
 31
0.0
100
AcDbText
1001
ACAD
1000
ACAD_MTEXT_DEFINED_HEIGHT_BEGIN
1070
    46
1040
10.82739725101047
1000
ACAD_MTEXT_DEFINED_HEIGHT_END
  0
TEXT
  5
24B0
330
1F
100
AcDbEntity
  8
文字标准层
100
AcDbText
 10
324.714737270183
 20
35.64276077954219
 30
0.0
 40
4.464216841915796
  1
8YB.750.350
  7
宋体
100
AcDbText
1001
ACAD
1000
ACAD_MTEXT_DEFINED_HEIGHT_BEGIN
1070
    46
1040
10.82739725101047
1000
ACAD_MTEXT_DEFINED_HEIGHT_END
  0
TEXT
  5
24B1
330
1F
100
AcDbEntity
  8
尺寸标注层
100
AcDbText
 10
50.68484191053164
 20
257.4110140398966
 30
0.0
 40
4.464216841915796
  1
8YB.750.350
 50
180.0
  7
宋体
100
AcDbText
  0
TEXT
  5
24B2
330
1F
100
AcDbEntity
  8
文字标准层
100
AcDbText
 10
282.9237349963524
 20
31.66603788639602
 30
0.0
 40
5.357060210298956
  1
隔板
  7
宋体
 72
     1
 11
290.542665073222
 21
31.66603788639602
 31
0.0
100
AcDbText
1001
ACAD
1000
ACAD_MTEXT_DEFINED_HEIGHT_BEGIN
1070
    46
1040
10.82739725101047
1000
ACAD_MTEXT_DEFINED_HEIGHT_END
  0
TEXT
  5
24B3
330
1F
100
AcDbEntity
  8
文字标准层
100
AcDbText
 10
271.9589856219274
 20
24.96707440666309
 30
0.0
 40
4.017795157724217
  1
UJ6-2.5JD/3LG
  7
宋体
 72
     1
 11
290.5301276842971
 21
24.96707440666309
 31
0.0
100
AcDbText
1001
ACAD
1000
ACAD_MTEXT_DEFINED_HEIGHT_BEGIN
1070
    46
1040
10.82739725101047
1000
ACAD_MTEXT_DEFINED_HEIGHT_END
  0
TEXT
  5
24B4
330
1F
100
AcDbEntity
  8
文字标准层
100
AcDbText
 10
330.0979510408432
 20
16.65222378686091
 30
0.0
 40
2.269087031563827
  1
1
  7
宋体
 72
     1
 11
330.9047375409547
 21
16.65222378686091
 31
0.0
100
AcDbText
1001
ACAD
1000
ACAD_MTEXT_DEFINED_HEIGHT_BEGIN
1070
    46
1040
3.559311874420387
1000
ACAD_MTEXT_DEFINED_HEIGHT_END
  0
TEXT
  5
24B5
330
1F
100
AcDbEntity
  8
文字标准层
100
AcDbText
 10
357.3356508468746
 20
16.65222378686091
 30
0.0
 40
2.269087031563827
  1
1
  7
宋体
 72
     1
 11
358.1424373469861
 21
16.65222378686091
 31
0.0
100
AcDbText
1001
ACAD
1000
ACAD_MTEXT_DEFINED_HEIGHT_BEGIN
1070
    46
1040
3.559311874420387
1000
ACAD_MTEXT_DEFINED_HEIGHT_END
  0
TEXT
  5
25A1
330
1F
100
AcDbEntity
  8
文字标准层
100
AcDbText
 10
284.8159301266449
 20
10.44687235188916
 30
0.0
 40
4.017795157724217
  1
PA66
  7
宋体
 72
     1
 11
290.5301276842971
 21
10.44687235188916
 31
0.0
100
AcDbText
1001
ACAD
1000
ACAD_MTEXT_DEFINED_HEIGHT_BEGIN
1070
    46
1040
10.82739725101047
1000
ACAD_MTEXT_DEFINED_HEIGHT_END
  0
LINE
  5
428F
330
1F
100
AcDbEntity
  8
轮廓线层
370
    15
100
AcDbLine
 10
124.6244153501713
 20
107.131097882598
 30
0.0
 11
126.8244153501713
 21
107.131097882598
 31
0.0
  0
LINE
  5
4291
330
1F
100
AcDbEntity
  8
轮廓线层
370
    15
100
AcDbLine
 10
124.6244153501713
 20
117.431097815498
 30
0.0
 11
124.1244153501713
 21
117.431097815498
 31
0.0
  0
LINE
  5
4292
330
1F
100
AcDbEntity
  8
轮廓线层
370
    15
100
AcDbLine
 10
124.1244153501713
 20
117.431097815498
 30
0.0
 11
122.6383666449713
 21
117.327183167198
 31
0.0
  0
LINE
  5
4293
330
1F
100
AcDbEntity
  8
轮廓线层
370
    15
100
AcDbLine
 10
124.1244153501713
 20
119.431097815498
 30
0.0
 11
122.6383666449713
 21
119.535012463898
 31
0.0
  0
LINE
  5
4294
330
1F
100
AcDbEntity
  8
轮廓线层
370
    15
100
AcDbLine
 10
124.6244153501713
 20
119.431097815498
 30
0.0
 11
124.1244153501713
 21
119.431097815498
 31
0.0
  0
LINE
  5
4298
330
1F
100
AcDbEntity
  8
轮廓线层
370
    15
100
AcDbLine
 10
124.1244153501713
 20
144.831097815498
 30
0.0
 11
122.6383666449713
 21
144.935012463898
 31
0.0
  0
LINE
  5
4299
330
1F
100
AcDbEntity
  8
轮廓线层
370
    15
100
AcDbLine
 10
124.6244153501713
 20
142.831097815498
 30
0.0
 11
124.1244153501713
 21
142.831097815498
 31
0.0
  0
LINE
  5
429C
330
1F
100
AcDbEntity
  8
轮廓线层
370
    15
100
AcDbLine
 10
124.6244153501713
 20
144.831097815498
 30
0.0
 11
124.1244153501713
 21
144.831097815498
 31
0.0
  0
LINE
  5
429D
330
1F
100
AcDbEntity
  8
轮廓线层
370
    15
100
AcDbLine
 10
124.1244153501713
 20
142.831097815498
 30
0.0
 11
122.6383666449713
 21
142.727183167198
 31
0.0
  0
LINE
  5
429F
102
{ACAD_REACTORS
330
4A1B
102
}
330
1F
100
AcDbEntity
  8
轮廓线层
370
    15
100
AcDbLine
 10
126.8244153501713
 20
107.131097882598
 30
0.0
 11
126.8244153501713
 21
194.931098091298
 31
0.0
  0
LINE
  5
42A7
102
{ACAD_REACTORS
330
4A1B
102
}
330
1F
100
AcDbEntity
  8
轮廓线层
370
    15
100
AcDbLine
 10
124.6244153501713
 20
107.131097882598
 30
0.0
 11
124.6244153501713
 21
194.931098091298
 31
0.0
  0
LINE
  5
42AA
330
1F
100
AcDbEntity
  8
轮廓线层
370
    15
100
AcDbLine
 10
124.1244153501713
 20
144.831097815498
 30
0.0
 11
124.1244153501713
 21
142.831097815498
 31
0.0
  0
LINE
  5
42AB
330
1F
100
AcDbEntity
  8
轮廓线层
370
    15
100
AcDbLine
 10
124.1244153501713
 20
119.431097815498
 30
0.0
 11
124.1244153501713
 21
117.431097815498
 31
0.0
  0
LINE
  5
42AC
330
1F
100
AcDbEntity
  8
轮廓线层
370
    15
100
AcDbLine
 10
122.4244153501713
 20
144.735356768898
 30
0.0
 11
122.4244153501713
 21
142.926695977198
 31
0.0
  0
LINE
  5
42AD
102
{ACAD_REACTORS
330
4A33
102
}
330
1F
100
AcDbEntity
  8
轮廓线层
370
    15
100
AcDbLine
 10
122.4244153501713
 20
119.335356768898
 30
0.0
 11
122.4244153501713
 21
117.526695977198
 31
0.0
  0
LINE
  5
42AE
330
1F
100
AcDbEntity
  8
轮廓线层
370
    15
100
AcDbLine
 10
122.4244153501713
 20
186.026696252998
 30
0.0
 11
122.4244153501713
 21
187.835499929598
 31
0.0
  0
LINE
  5
42B5
330
1F
100
AcDbEntity
  8
轮廓线层
370
    15
100
AcDbLine
 10
124.6244153501713
 20
185.931098091298
 30
0.0
 11
124.1244153501713
 21
185.931098091298
 31
0.0
  0
LINE
  5
42B6
330
1F
100
AcDbEntity
  8
轮廓线层
370
    15
100
AcDbLine
 10
124.1244153501713
 20
185.931098091298
 30
0.0
 11
122.6383666449713
 21
185.827183442998
 31
0.0
  0
LINE
  5
42B9
330
1F
100
AcDbEntity
  8
轮廓线层
370
    15
100
AcDbLine
 10
124.1244153501713
 20
187.931098091298
 30
0.0
 11
122.6383666449713
 21
188.035012739698
 31
0.0
  0
LINE
  5
42BA
330
1F
100
AcDbEntity
  8
轮廓线层
370
    15
100
AcDbLine
 10
124.6244153501713
 20
187.931098091298
 30
0.0
 11
124.1244153501713
 21
187.931098091298
 31
0.0
  0
LINE
  5
42BC
330
1F
100
AcDbEntity
  8
轮廓线层
370
    15
100
AcDbLine
 10
124.6244153501713
 20
194.931098091298
 30
0.0
 11
126.8244153501713
 21
194.931098091298
 31
0.0
  0
LINE
  5
42BD
102
{ACAD_REACTORS
330
4E50
102
}
330
1F
100
AcDbEntity
  8
轮廓线层
370
    15
100
AcDbLine
 10
146.8491029965163
 20
116.931097882598
 30
0.0
 11
146.8491029966163
 21
135.716121964398
 31
0.0
  0
LINE
  5
42BE
330
1F
100
AcDbEntity
  8
轮廓线层
370
    15
100
AcDbLine
 10
245.0095749461163
 20
108.421987122498
 30
0.0
 11
237.8178175402163
 21
107.153886253098
 31
0.0
  0
LINE
  5
42BF
330
1F
100
AcDbEntity
  8
轮廓线层
370
    15
100
AcDbLine
 10
150.9491029965163
 20
111.131097815498
 30
0.0
 11
150.9491029965163
 21
115.931097882598
 31
0.0
  0
LINE
  5
42C0
330
1F
100
AcDbEntity
  8
轮廓线层
370
    15
100
AcDbLine
 10
170.6612258282163
 20
189.128927911298
 30
0.0
 11
186.4368642191163
 21
194.870790712198
 31
0.0
  0
LINE
  5
42C1
330
1F
100
AcDbEntity
  8
轮廓线层
370
    15
100
AcDbLine
 10
237.5573452737163
 20
107.131097882598
 30
0.0
 11
214.8491026796163
 21
107.131097882598
 31
0.0
  0
LINE
  5
42C2
330
1F
100
AcDbEntity
  8
轮廓线层
370
    15
100
AcDbLine
 10
213.8491026796163
 20
110.131097815498
 30
0.0
 11
151.9491029965163
 21
110.131097815498
 31
0.0
  0
LINE
  5
42C3
330
1F
100
AcDbEntity
  8
轮廓线层
370
    15
100
AcDbLine
 10
158.8356855044163
 20
154.851447624898
 30
0.0
 11
158.5141180626163
 21
162.216552932298
 31
0.0
  0
LINE
  5
42C4
330
1F
100
AcDbEntity
  8
轮廓线层
370
    15
100
AcDbLine
 10
150.4491029965163
 20
116.431097882598
 30
0.0
 11
147.3491029965163
 21
116.431097882598
 31
0.0
  0
LINE
  5
42C5
330
1F
100
AcDbEntity
  8
轮廓线层
370
    15
100
AcDbLine
 10
163.5159842231163
 20
141.992432890398
 30
0.0
 11
158.8356855044163
 21
154.851447624898
 31
0.0
  0
LINE
  5
42C6
330
1F
100
AcDbEntity
  8
轮廓线层
370
    15
100
AcDbLine
 10
170.7856856159163
 20
181.468811393298
 30
0.0
 11
170.4641181637163
 21
188.833916938398
 31
0.0
  0
LINE
  5
42C7
330
1F
100
AcDbEntity
  8
轮廓线层
370
    15
100
AcDbLine
 10
158.7112257249163
 20
162.511563955598
 30
0.0
 11
175.4659840053163
 21
168.609797251998
 31
0.0
  0
LINE
  5
42C8
330
1F
100
AcDbEntity
  8
轮廓线层
370
    15
100
AcDbLine
 10
177.0491026796163
 20
125.831097815498
 30
0.0
 11
216.0491026796163
 21
125.831097815498
 31
0.0
  0
LINE
  5
42C9
330
1F
100
AcDbEntity
  8
轮廓线层
370
    15
100
AcDbLine
 10
176.5491026796162
 20
145.331097815498
 30
0.0
 11
176.5491026796162
 21
126.331097815498
 31
0.0
  0
LINE
  5
42CA
330
1F
100
AcDbEntity
  8
轮廓线层
370
    15
100
AcDbLine
 10
175.4659840053163
 20
168.609797251998
 30
0.0
 11
170.7856856159163
 21
181.468811393298
 31
0.0
  0
LINE
  5
42CB
330
1F
100
AcDbEntity
  8
轮廓线层
370
    15
100
AcDbLine
 10
216.0491026796163
 20
145.831097815498
 30
0.0
 11
177.0491026796163
 21
145.831097815498
 31
0.0
  0
LINE
  5
42CC
330
1F
100
AcDbEntity
  8
轮廓线层
370
    15
100
AcDbLine
 10
234.8411528250163
 20
129.804941001098
 30
0.0
 11
246.0517087227164
 21
125.724632344698
 31
0.0
  0
LINE
  5
42CD
330
1F
100
AcDbEntity
  8
轮廓线层
370
    15
100
AcDbLine
 10
147.0464969536163
 20
135.998029750698
 30
0.0
 11
163.5159842231163
 21
141.992432890398
 31
0.0
  0
LINE
  5
42CE
330
1F
100
AcDbEntity
  8
轮廓线层
370
    15
100
AcDbLine
 10
216.1887953053163
 20
176.756171837498
 30
0.0
 11
214.8411528252164
 21
173.053554396198
 31
0.0
  0
LINE
  5
42CF
330
1F
100
AcDbEntity
  8
轮廓线层
370
    15
100
AcDbLine
 10
224.8411528251163
 20
151.429247698598
 30
0.0
 11
236.0517087226163
 21
147.348939042198
 31
0.0
  0
LINE
  5
42D0
330
1F
100
AcDbEntity
  8
轮廓线层
370
    15
100
AcDbLine
 10
214.3491026796163
 20
107.631097882598
 30
0.0
 11
214.3491026796163
 21
109.631097815498
 31
0.0
  0
LINE
  5
42D1
330
1F
100
AcDbEntity
  8
轮廓线层
370
    15
100
AcDbLine
 10
216.2491026799163
 20
190.315644642198
 30
0.0
 11
216.2491026798163
 21
177.098191967998
 31
0.0
  0
LINE
  5
42D2
330
1F
100
AcDbEntity
  8
轮廓线层
370
    15
100
AcDbLine
 10
216.5491026796163
 20
126.331097815498
 30
0.0
 11
216.5491026796163
 21
145.331097815498
 31
0.0
  0
LINE
  5
42D3
330
1F
100
AcDbEntity
  8
轮廓线层
370
    15
100
AcDbLine
 10
226.1887953360163
 20
155.131865066798
 30
0.0
 11
224.8411528251163
 21
151.429247698598
 31
0.0
  0
LINE
  5
42D4
330
1F
100
AcDbEntity
  8
轮廓线层
370
    15
100
AcDbLine
 10
214.8411528252164
 20
173.053554396198
 30
0.0
 11
226.0517086828163
 21
168.973245754298
 31
0.0
  0
LINE
  5
42D5
330
1F
100
AcDbEntity
  8
轮廓线层
370
    15
100
AcDbLine
 10
226.2491026398163
 20
168.691337969798
 30
0.0
 11
226.2491027152163
 21
155.473885215798
 31
0.0
  0
LINE
  5
42D6
330
1F
100
AcDbEntity
  8
轮廓线层
370
    15
100
AcDbLine
 10
236.2491026797163
 20
147.067031255998
 30
0.0
 11
236.2491026797163
 21
133.849578489798
 31
0.0
  0
LINE
  5
42D7
330
1F
100
AcDbEntity
  8
轮廓线层
370
    15
100
AcDbLine
 10
236.1887953027163
 20
133.507558352598
 30
0.0
 11
234.8411528250163
 21
129.804941001098
 31
0.0
  0
LINE
  5
42D8
330
1F
100
AcDbEntity
  8
轮廓线层
370
    15
100
AcDbLine
 10
186.7788843625163
 20
194.931098091398
 30
0.0
 11
203.9690628909163
 21
194.931098091298
 31
0.0
  0
LINE
  5
42D9
330
1F
100
AcDbEntity
  8
轮廓线层
370
    15
100
AcDbLine
 10
204.3110830343163
 20
194.870790712098
 30
0.0
 11
216.0517087229163
 21
190.597552428498
 31
0.0
  0
LINE
  5
42DA
102
{ACAD_REACTORS
330
4E50
102
}
330
1F
100
AcDbEntity
  8
轮廓线层
370
    15
100
AcDbLine
 10
246.2491026797163
 20
125.442724558398
 30
0.0
 11
246.2491026796163
 21
109.899198751998
 31
0.0
  0
ARC
  5
4546
330
1F
100
AcDbEntity
  8
轮廓线层
370
    15
100
AcDbCircle
 10
122.6244153501713
 20
144.735499653798
 30
0.0
 40
0.2
100
AcDbArc
 50
86.00000000000024
 51
180.0
  0
ARC
  5
4547
330
1F
100
AcDbEntity
  8
轮廓线层
370
    15
100
AcDbCircle
 10
122.6244153501713
 20
142.926695977198
 30
0.0
 40
0.2
100
AcDbArc
 50
180.0
 51
273.9999999999998
  0
ARC
  5
4548
330
1F
100
AcDbEntity
  8
轮廓线层
370
    15
100
AcDbCircle
 10
122.6244153501713
 20
119.335499653798
 30
0.0
 40
0.2
100
AcDbArc
 50
86.00000000000024
 51
180.0
  0
ARC
  5
4549
330
1F
100
AcDbEntity
  8
轮廓线层
370
    15
100
AcDbCircle
 10
122.6244153501713
 20
117.526695977198
 30
0.0
 40
0.2
100
AcDbArc
 50
180.0
 51
273.9999999999998
  0
ARC
  5
454C
330
1F
100
AcDbEntity
  8
轮廓线层
370
    15
100
AcDbCircle
 10
122.6244153501713
 20
187.835499929598
 30
0.0
 40
0.2
100
AcDbArc
 50
86.00000000000024
 51
180.0
  0
ARC
  5
454D
330
1F
100
AcDbEntity
  8
轮廓线层
370
    15
100
AcDbCircle
 10
122.6244153501713
 20
186.026696252998
 30
0.0
 40
0.2
100
AcDbArc
 50
180.0
 51
273.9999999999998
  0
ARC
  5
454E
330
1F
100
AcDbEntity
  8
轮廓线层
370
    15
100
AcDbCircle
 10
237.5573452737163
 20
108.631097882598
 30
0.0
 40
1.5
100
AcDbArc
 50
270.0
 51
279.9999999998001
  0
ARC
  5
454F
330
1F
100
AcDbEntity
  8
轮廓线层
370
    15
100
AcDbCircle
 10
244.7491026796163
 20
109.899198751998
 30
0.0
 40
1.5
100
AcDbArc
 50
279.9999999998001
 51
359.9999999997997
  0
ARC
  5
4550
330
1F
100
AcDbEntity
  8
轮廓线层
370
    15
100
AcDbCircle
 10
225.2491027152164
 20
155.473885210098
 30
0.0
 40
1.0
100
AcDbArc
 50
339.9999999998002
 51
0.0000003269996968
  0
ARC
  5
4551
330
1F
100
AcDbEntity
  8
轮廓线层
370
    15
100
AcDbCircle
 10
215.2491026798163
 20
177.098191967998
 30
0.0
 40
1.0
100
AcDbArc
 50
340.0000007844998
 51
359.9999999997997
  0
ARC
  5
4552
102
{ACAD_REACTORS
330
4E38
102
}
330
1F
100
AcDbEntity
  8
轮廓线层
370
    15
100
AcDbCircle
 10
203.9690628909163
 20
193.931098091298
 30
0.0
 40
1.0
100
AcDbArc
 50
69.99999999439906
 51
89.99999999980133
  0
ARC
  5
4553
330
1F
100
AcDbEntity
  8
轮廓线层
370
    15
100
AcDbCircle
 10
186.7788843625163
 20
193.931098091398
 30
0.0
 40
1.0
100
AcDbArc
 50
89.99999999980133
 51
110.0000000001005
  0
ARC
  5
4554
330
1F
100
AcDbEntity
  8
轮廓线层
370
    15
100
AcDbCircle
 10
151.9491029965163
 20
111.131097815498
 30
0.0
 40
1.0
100
AcDbArc
 50
179.9999999997997
 51
270.0
  0
ARC
  5
4555
330
1F
100
AcDbEntity
  8
轮廓线层
370
    15
100
AcDbCircle
 10
235.2491026797163
 20
133.849578489798
 30
0.0
 40
1.0
100
AcDbArc
 50
340.000000371899
 51
359.9999999997997
  0
CIRCLE
  5
4556
330
1F
100
AcDbEntity
  8
轮廓线层
370
    15
100
AcDbCircle
 10
221.8491029964163
 20
151.831097815498
 30
0.0
 40
1.0
  0
CIRCLE
  5
4557
330
1F
100
AcDbEntity
  8
轮廓线层
370
    15
100
AcDbCircle
 10
244.1491029964163
 20
110.331097815498
 30
0.0
 40
1.0
  0
CIRCLE
  5
4558
330
1F
100
AcDbEntity
  8
轮廓线层
370
    15
100
AcDbCircle
 10
149.1491029964163
 20
118.431097815498
 30
0.0
 40
1.0
  0
CIRCLE
  5
4559
330
1F
100
AcDbEntity
  8
轮廓线层
370
    15
100
AcDbCircle
 10
165.3491029964163
 20
143.831097815498
 30
0.0
 40
1.0
  0
CIRCLE
  5
455A
330
1F
100
AcDbEntity
  8
轮廓线层
370
    15
100
AcDbCircle
 10
196.5491028380163
 20
186.931098091298
 30
0.0
 40
1.0
  0
ARC
  5
455B
330
1F
100
AcDbEntity
  8
轮廓线层
370
    15
100
AcDbCircle
 10
216.0491026796163
 20
145.331097815498
 30
0.0
 40
0.5
100
AcDbArc
 50
0.0
 51
90.0
  0
ARC
  5
455C
330
1F
100
AcDbEntity
  8
轮廓线层
370
    15
100
AcDbCircle
 10
216.0491026796163
 20
126.331097815498
 30
0.0
 40
0.5
100
AcDbArc
 50
270.0
 51
0.0
  0
ARC
  5
455D
330
1F
100
AcDbEntity
  8
轮廓线层
370
    15
100
AcDbCircle
 10
177.0491026796163
 20
126.331097815498
 30
0.0
 40
0.5
100
AcDbArc
 50
180.0
 51
270.0
  0
ARC
  5
455E
330
1F
100
AcDbEntity
  8
轮廓线层
370
    15
100
AcDbCircle
 10
177.0491026796163
 20
145.331097815498
 30
0.0
 40
0.5
100
AcDbArc
 50
90.0
 51
180.0
  0
ARC
  5
455F
102
{ACAD_REACTORS
330
4E50
102
}
330
1F
100
AcDbEntity
  8
轮廓线层
370
    15
100
AcDbCircle
 10
147.3491029965163
 20
116.931097882598
 30
0.0
 40
0.5
100
AcDbArc
 50
179.9999999997997
 51
270.0
  0
ARC
  5
4560
330
1F
100
AcDbEntity
  8
轮廓线层
370
    15
100
AcDbCircle
 10
150.4491029965163
 20
115.931097882598
 30
0.0
 40
0.5
100
AcDbArc
 50
0.0
 51
90.0
  0
ARC
  5
4561
330
1F
100
AcDbEntity
  8
轮廓线层
370
    15
100
AcDbCircle
 10
213.8491026796163
 20
109.631097815498
 30
0.0
 40
0.5
100
AcDbArc
 50
0.0
 51
90.0
  0
ARC
  5
4562
330
1F
100
AcDbEntity
  8
轮廓线层
370
    15
100
AcDbCircle
 10
214.8491026796163
 20
107.631097882598
 30
0.0
 40
0.5
100
AcDbArc
 50
179.9999999997997
 51
270.0
  0
ARC
  5
4563
330
1F
100
AcDbEntity
  8
轮廓线层
370
    15
100
AcDbCircle
 10
225.9491026398163
 20
168.691337968098
 30
0.0
 40
0.3
100
AcDbArc
 50
0.0000003269003617
 51
69.99999999950087
  0
ARC
  5
4564
330
1F
100
AcDbEntity
  8
轮廓线层
370
    15
100
AcDbCircle
 10
215.9491026799163
 20
190.315644642198
 30
0.0
 40
0.3
100
AcDbArc
 50
0.0
 51
69.99999999439906
  0
ARC
  5
4565
330
1F
100
AcDbEntity
  8
轮廓线层
370
    15
100
AcDbCircle
 10
170.7638318712163
 20
188.847020124998
 30
0.0
 40
0.3
100
AcDbArc
 50
110.000000000201
 51
182.5033206649003
  0
ARC
  5
4566
330
1F
100
AcDbEntity
  8
轮廓线层
370
    15
100
AcDbCircle
 10
158.8138317679163
 20
162.229656169298
 30
0.0
 40
0.3
100
AcDbArc
 50
110.0000000016013
 51
182.5033303009
  0
ARC
  5
4567
330
1F
100
AcDbEntity
  8
轮廓线层
370
    15
100
AcDbCircle
 10
147.1491029966163
 20
135.716121964398
 30
0.0
 40
0.3
100
AcDbArc
 50
110.000000000201
 51
179.9999999997997
  0
ARC
  5
4568
330
1F
100
AcDbEntity
  8
轮廓线层
370
    15
100
AcDbCircle
 10
245.9491026797163
 20
125.442724558398
 30
0.0
 40
0.3
100
AcDbArc
 50
0.0
 51
69.99999999950087
  0
ARC
  5
4569
330
1F
100
AcDbEntity
  8
轮廓线层
370
    15
100
AcDbCircle
 10
235.9491026797163
 20
147.067031255998
 30
0.0
 40
0.3
100
AcDbArc
 50
0.0
 51
70.00000001660166
  0
DIMENSION
  5
4A00
102
{ACAD_XDICTIONARY
360
4A0F
102
}
102
{ACAD_REACTORS
330
4A1B
102
}
330
1F
100
AcDbEntity
  8
尺寸标注层
100
AcDbDimension
  2
*D17
 10
126.8244153501713
 20
104.3855828595677
 30
0.0
 11
132.1244153501713
 21
104.3855828595677
 31
0.0
 70
   160
 71
     5
 42
2.199999999999988
  3
1比1-S
100
AcDbAlignedDimension
 13
124.6244153501713
 23
107.131097882598
 33
0.0
 14
126.8244153501713
 24
107.131097882598
 34
0.0
 50
180.0
100
AcDbRotatedDimension
  0
DIMENSION
  5
4A1C
102
{ACAD_XDICTIONARY
360
4A29
102
}
102
{ACAD_REACTORS
330
4A33
102
}
330
1F
100
AcDbEntity
  8
尺寸标注层
100
AcDbDimension
  2
*D18
 10
122.4244153501713
 20
100.1355828595677
 30
0.0
 11
124.6244153501713
 21
100.1355828595677
 31
0.0
 70
   160
 71
     5
 42
4.400000000000005
  3
1比1-S
100
AcDbAlignedDimension
 13
126.8244153501713
 23
107.131097882598
 33
0.0
 14
122.4244153501713
 24
117.526695977198
 34
0.0
 50
180.0
100
AcDbRotatedDimension
  0
HATCH
  5
4DC7
330
1F
100
AcDbEntity
  8
文字标准层
100
AcDbHatch
 10
0.0
 20
0.0
 30
0.0
210
0.0
220
0.0
230
1.0
  2
SOLID
 70
     1
 71
     0
 91
        2
 92
        7
 72
     1
 73
     1
 93
       12
 10
197.0245045478097
 20
144.8265505441629
 42
0.0
 10
196.295849063191
 20
144.8265505441629
 42
0.0
 10
195.7707912197967
 20
142.9111586064921
 42
0.4115698355392973
 10
196.1899821948259
 20
142.3344565573215
 42
0.0
 10
197.5104553903421
 20
142.3344565573215
 42
0.2092256844604964
 10
197.7769192757208
 20
142.5307451314614
 42
0.0
 10
198.5072146995433
 20
144.8255423651642
 42
0.0
 10
197.7746487374401
 20
144.8255423651642
 42
0.0
 10
197.236064019137
 20
142.9565193808498
 42
-0.1340281147132998
 10
197.1411208567218
 20
142.863920715324
 42
0.0
 10
196.6146281857751
 20
142.863920715324
 42
-0.4380919079513468
 10
196.5096673067042
 20
143.0983382588067
 42
0.0
 97
        0
 92
        7
 72
     1
 73
     1
 93
       11
 10
198.2095372728552
 20
142.338662915267
 42
0.0
 10
198.9426670534976
 20
142.338662915267
 42
0.0
 10
199.4634401303941
 20
144.1794161163416
 42
-0.1916628029051352
 10
199.5733434052576
 20
144.2934533742784
 42
0.0
 10
200.078477116237
 20
144.2934533742784
 42
-0.4082458363860901
 10
200.2206808338907
 20
144.1139714016343
 42
0.0
 10
199.6838543830138
 20
142.336453075725
 42
0.0
 10
200.4189767676995
 20
142.336453075725
 42
0.0
 10
200.9713907813465
 20
144.2870679372622
 42
0.36525003323555
 10
200.5378394466976
 20
144.8255423651642
 42
0.0
 10
198.9825805825445
 20
144.8255423651642
 42
0.0
 97
        0
 75
     0
 76
     1
 47
0.0497082958319698
 98
        2
 10
196.5576014549655
 20
144.0206418669502
 10
199.112332275853
 20
144.2980979457354
450
        0
451
        0
460
0.0
461
0.0
452
        0
462
0.0
453
        0
470

  0
ARC
  5
4DC8
330
1F
100
AcDbEntity
  8
文字标准层
100
AcDbCircle
 10
199.6616748407452
 20
144.0983458502311
 30
0.0
 40
0.2141713996667213
100
AcDbArc
 50
114.3577882232919
 51
157.7573526105717
  0
LINE
  5
4DC9
330
1F
100
AcDbEntity
  8
文字标准层
100
AcDbLine
 10
198.9426670534976
 20
142.338662915267
 30
0.0
 11
199.4634401303941
 21
144.1794161163416
 31
0.0
  0
LINE
  5
4DCA
330
1F
100
AcDbEntity
  8
文字标准层
100
AcDbLine
 10
198.9825805825445
 20
144.8255423651642
 30
0.0
 11
198.2095372728552
 21
142.338662915267
 31
0.0
  0
LINE
  5
4DCB
330
1F
100
AcDbEntity
  8
文字标准层
100
AcDbLine
 10
198.5072146995431
 20
144.8255423651642
 30
0.0
 11
197.7769192757209
 21
142.5307451314614
 31
0.0
  0
MTEXT
  5
4DCC
330
1F
100
AcDbEntity
  8
文字标准层
100
AcDbMText
 10
201.8855877748714
 20
143.5548011672809
 30
0.0
 40
0.9430816861157421
 41
0.0
 71
     1
 72
     5
  1
{\fSimHei|b0|i0|c134|p2;R}
 73
     1
 44
1.0
  0
HATCH
  5
4DCD
330
1F
100
AcDbEntity
  8
文字标准层
100
AcDbHatch
 10
0.0
 20
0.0
 30
0.0
210
0.0
220
0.0
230
1.0
  2
SOLID
 70
     1
 71
     0
 91
        2
 92
        7
 72
     1
 73
     1
 93
        2
 10
201.403346448468
 20
143.0733830804232
 42
1.0
 10
202.8750001682235
 20
143.0733830804232
 42
1.0
 97
        0
 92
       22
 72
     1
 73
     1
 93
        2
 10
202.767894432423
 20
143.0733830804232
 42
-1.0
 10
201.5104521842687
 20
143.0733830804232
 42
-1.0
 97
        0
 75
     0
 76
     1
 47
0.1612021830865934
 98
        2
 10
201.9470414005091
 20
143.7442288924492
 10
201.9470414005091
 20
143.7442288924492
450
        0
451
        0
460
0.0
461
0.0
452
        0
462
0.0
453
        0
470

  0
CIRCLE
  5
4DCE
330
1F
100
AcDbEntity
  8
文字标准层
100
AcDbCircle
 10
202.1391733083458
 20
143.0733830804232
 30
0.0
 40
0.6287211240771615
  0
CIRCLE
  5
4DCF
330
1F
100
AcDbEntity
  8
文字标准层
100
AcDbCircle
 10
202.1391733083458
 20
143.0733830804232
 30
0.0
 40
0.7358268598777582
  0
ARC
  5
4DD0
330
1F
100
AcDbEntity
  8
文字标准层
100
AcDbCircle
 10
200.4352189391606
 20
144.2991441223555
 30
0.0
 40
0.5363078207515882
100
AcDbArc
 50
358.7097467258004
 51
78.96863789143435
  0
ARC
  5
4DD1
330
1F
100
AcDbEntity
  8
文字标准层
100
AcDbCircle
 10
200.0579866936238
 20
144.1311437464528
 30
0.0
 40
0.163597899447857
100
AcDbArc
 50
353.9747473472984
 51
82.80488245575522
  0
LINE
  5
4DD2
330
1F
100
AcDbEntity
  8
文字标准层
100
AcDbLine
 10
198.9825805825445
 20
144.8255423651642
 30
0.0
 11
200.5378394466976
 21
144.8255423651642
 31
0.0
  0
LINE
  5
4DD3
330
1F
100
AcDbEntity
  8
文字标准层
100
AcDbLine
 10
200.4189767676996
 20
142.336453075725
 30
0.0
 11
200.9713907813465
 21
144.2870679372622
 31
0.0
  0
LINE
  5
4DD4
330
1F
100
AcDbEntity
  8
文字标准层
100
AcDbLine
 10
199.6838543830138
 20
142.336453075725
 30
0.0
 11
200.4189767676996
 21
142.336453075725
 31
0.0
  0
LINE
  5
4DD5
330
1F
100
AcDbEntity
  8
文字标准层
100
AcDbLine
 10
200.2206808338906
 20
144.1139714016338
 30
0.0
 11
199.6838543830138
 21
142.336453075725
 31
0.0
  0
LINE
  5
4DD6
330
1F
100
AcDbEntity
  8
文字标准层
100
AcDbLine
 10
199.5733434052575
 20
144.2934533742784
 30
0.0
 11
200.078477116237
 21
144.2934533742784
 31
0.0
  0
LINE
  5
4DD7
330
1F
100
AcDbEntity
  8
文字标准层
100
AcDbLine
 10
198.2095372728552
 20
142.338662915267
 30
0.0
 11
198.9426670534976
 21
142.338662915267
 31
0.0
  0
ARC
  5
4DD8
330
1F
100
AcDbEntity
  8
文字标准层
100
AcDbCircle
 10
197.4194128058389
 20
142.7370559670042
 30
0.0
 40
0.412765111013477
100
AcDbArc
 50
282.7423694360632
 51
330.0114948665378
  0
LINE
  5
4DD9
330
1F
100
AcDbEntity
  8
文字标准层
100
AcDbLine
 10
197.7746487374403
 20
144.8255423651642
 30
0.0
 11
198.5072146995431
 21
144.8255423651642
 31
0.0
  0
ARC
  5
4DDA
330
1F
100
AcDbEntity
  8
文字标准层
100
AcDbCircle
 10
197.0189726788552
 20
143.0841343938623
 30
0.0
 40
0.2518218449052976
100
AcDbArc
 50
299.0162666056232
 51
329.5512766321257
  0
ARC
  5
4DDB
330
1F
100
AcDbEntity
  8
文字标准层
100
AcDbCircle
 10
196.6702455366668
 20
143.0295304682389
 30
0.0
 40
0.1746993989135003
100
AcDbArc
 50
156.8048613433228
 51
251.4362090194565
  0
LINE
  5
4DDC
330
1F
100
AcDbEntity
  8
文字标准层
100
AcDbLine
 10
197.7746487374403
 20
144.8255423651642
 30
0.0
 11
197.2360640191371
 21
142.9565193808498
 31
0.0
  0
LINE
  5
4DDD
330
1F
100
AcDbEntity
  8
文字标准层
100
AcDbLine
 10
196.6146281857751
 20
142.863920715324
 30
0.0
 11
197.1411208567219
 21
142.863920715324
 31
0.0
  0
LINE
  5
4DDE
330
1F
100
AcDbEntity
  8
文字标准层
100
AcDbLine
 10
197.0245045478097
 20
144.8265505441629
 30
0.0
 11
196.5096673067042
 21
143.0983382588067
 31
0.0
  0
LINE
  5
4DDF
330
1F
100
AcDbEntity
  8
文字标准层
100
AcDbLine
 10
196.295849063191
 20
144.8265505441629
 30
0.0
 11
197.0245045478097
 21
144.8265505441629
 31
0.0
  0
ARC
  5
4DE0
330
1F
100
AcDbEntity
  8
文字标准层
100
AcDbCircle
 10
196.2713547300389
 20
142.8343053030003
 30
0.0
 40
0.5064289269420071
100
AcDbArc
 50
171.271334111878
 51
260.7536852297649
  0
LINE
  5
4DE1
330
1F
100
AcDbEntity
  8
文字标准层
100
AcDbLine
 10
196.1899821948259
 20
142.3344565573215
 30
0.0
 11
197.5104553903422
 21
142.3344565573215
 31
0.0
  0
LINE
  5
4DE2
330
1F
100
AcDbEntity
  8
文字标准层
100
AcDbLine
 10
196.295849063191
 20
144.8265505441629
 30
0.0
 11
195.7707912197967
 21
142.9111586064922
 31
0.0
  0
ARC
  5
4DE3
330
1F
100
AcDbEntity
  8
文字标准层
100
AcDbCircle
 10
195.7528240565086
 20
144.6907597023278
 30
0.0
 40
0.1562686895164414
100
AcDbArc
 50
348.2489944183026
 51
63.10791382560763
  0
ARC
  5
4DE4
330
1F
100
AcDbEntity
  8
文字标准层
100
AcDbCircle
 10
195.0617013370026
 20
143.8475037106877
 30
0.0
 40
0.569620038097738
100
AcDbArc
 50
286.0643257563202
 51
328.9457030839738
  0
LINE
  5
4DE5
330
1F
100
AcDbEntity
  8
文字标准层
100
AcDbLine
 10
195.905817650934
 20
144.6589341875951
 30
0.0
 11
195.5496827675879
 21
143.5536651305003
 31
0.0
  0
LINE
  5
4DE6
330
1F
100
AcDbEntity
  8
文字标准层
100
AcDbLine
 10
193.9985928433086
 20
143.3001264047911
 30
0.0
 11
195.2193245357768
 21
143.3001264047911
 31
0.0
  0
LINE
  5
4DE7
330
1F
100
AcDbEntity
  8
文字标准层
100
AcDbLine
 10
193.7102379796792
 20
142.3256783560666
 30
0.0
 11
193.9985928433086
 21
143.3001264047911
 31
0.0
  0
LINE
  5
4DE8
330
1F
100
AcDbEntity
  8
文字标准层
100
AcDbLine
 10
193.7102379796792
 20
142.3256783560666
 30
0.0
 11
193.7102379796792
 21
142.3256783560666
 31
0.0
  0
LINE
  5
4DE9
330
1F
100
AcDbEntity
  8
文字标准层
100
AcDbLine
 10
193.0050424979439
 20
142.3256783560666
 30
0.0
 11
193.7102379796792
 21
142.3256783560666
 31
0.0
  0
LINE
  5
4DEA
330
1F
100
AcDbEntity
  8
文字标准层
100
AcDbLine
 10
193.4687337972583
 20
143.8713037640993
 30
0.0
 11
193.0050424979439
 21
142.3256783560666
 31
0.0
  0
LINE
  5
4DEB
330
1F
100
AcDbEntity
  8
文字标准层
100
AcDbLine
 10
194.9367957970554
 20
143.8713037640993
 30
0.0
 11
193.4687337972583
 21
143.8713037640993
 31
0.0
  0
LINE
  5
4DEC
330
1F
100
AcDbEntity
  8
文字标准层
100
AcDbLine
 10
195.0910063686497
 20
144.3220740817121
 30
0.0
 11
194.9367957970554
 21
143.8713037640993
 31
0.0
  0
LINE
  5
4DED
330
1F
100
AcDbEntity
  8
文字标准层
100
AcDbLine
 10
193.9644609925032
 20
144.3220740817121
 30
0.0
 11
195.0910063686497
 21
144.3220740817121
 31
0.0
  0
LINE
  5
4DEE
330
1F
100
AcDbEntity
  8
文字标准层
100
AcDbLine
 10
194.1114888402675
 20
144.8301294977018
 30
0.0
 11
195.8235061862202
 21
144.8301294977018
 31
0.0
  0
LINE
  5
4DEF
330
1F
100
AcDbEntity
  8
文字标准层
100
AcDbLine
 10
193.9644609925032
 20
144.3220740817121
 30
0.0
 11
194.1114888402675
 21
144.8301294977018
 31
0.0
  0
LINE
  5
4DF0
330
1F
100
AcDbEntity
  8
文字标准层
100
AcDbLine
 10
192.7056364093379
 20
144.253974038445
 30
0.0
 11
192.8597280479749
 21
144.831097815498
 31
0.0
  0
LINE
  5
4DF1
330
1F
100
AcDbEntity
  8
文字标准层
100
AcDbLine
 10
193.3944255029805
 20
144.253974038445
 30
0.0
 11
192.7056364093379
 21
144.253974038445
 31
0.0
  0
LINE
  5
4DF2
330
1F
100
AcDbEntity
  8
文字标准层
100
AcDbLine
 10
193.5534722575124
 20
144.831097815498
 30
0.0
 11
193.3944255029805
 21
144.253974038445
 31
0.0
  0
LINE
  5
4DF3
330
1F
100
AcDbEntity
  8
文字标准层
100
AcDbLine
 10
192.8597280479749
 20
144.831097815498
 30
0.0
 11
193.5534722575124
 21
144.831097815498
 31
0.0
  0
ARC
  5
4DF4
330
1F
100
AcDbEntity
  8
文字标准层
100
AcDbCircle
 10
191.8712282523586
 20
142.7832518332689
 30
0.0
 40
0.4734921713511268
100
AcDbArc
 50
286.9234971483132
 51
325.9283283887052
  0
LINE
  5
4DF5
330
1F
100
AcDbEntity
  8
文字标准层
100
AcDbLine
 10
192.7598262716364
 20
143.9937065961399
 30
0.0
 11
192.2634395390813
 21
142.5179875444964
 31
0.0
  0
LINE
  5
4DF6
330
1F
100
AcDbEntity
  8
文字标准层
100
AcDbLine
 10
190.7742434071273
 20
144.8243255974072
 30
0.0
 11
191.504831561223
 21
144.8243255974072
 31
0.0
  0
LINE
  5
4DF7
330
1F
100
AcDbEntity
  8
文字标准层
100
AcDbLine
 10
192.0788695985906
 20
143.9937065961399
 30
0.0
 11
192.7598262716364
 21
143.9937065961399
 31
0.0
  0
ARC
  5
4DF8
330
1F
100
AcDbEntity
  8
文字标准层
100
AcDbCircle
 10
190.7500688712072
 20
142.8342943959603
 30
0.0
 40
0.5116729594135744
100
AcDbArc
 50
174.7358192495351
 51
260.084389572638
  0
LINE
  5
4DF9
330
1F
100
AcDbEntity
  8
文字标准层
100
AcDbLine
 10
191.5974833472732
 20
142.8651076326828
 30
0.0
 11
191.1024926459581
 21
142.8651076326828
 31
0.0
  0
ARC
  5
4DFA
330
1F
100
AcDbEntity
  8
文字标准层
100
AcDbCircle
 10
191.1427510319093
 20
143.0290753132945
 30
0.0
 40
0.1688376081462866
100
AcDbArc
 50
156.9623470693544
 51
256.2052529125257
  0
ARC
  5
4DFB
330
1F
100
AcDbEntity
  8
文字标准层
100
AcDbCircle
 10
191.563454213867
 20
143.0379647502785
 30
0.0
 40
0.1761748138181597
100
AcDbArc
 50
281.1369928591414
 51
340.8347293231238
  0
LINE
  5
4DFC
330
1F
100
AcDbEntity
  8
文字标准层
100
AcDbLine
 10
192.0788695985906
 20
143.9937065961399
 30
0.0
 11
191.7298646331136
 21
142.9801275875711
 31
0.0
  0
LINE
  5
4DFD
330
1F
100
AcDbEntity
  8
文字标准层
100
AcDbLine
 10
191.504831561223
 20
144.8243255974072
 30
0.0
 11
190.987378581141
 21
143.0951475424594
 31
0.0
  0
LINE
  5
4DFE
330
1F
100
AcDbEntity
  8
文字标准层
100
AcDbLine
 10
190.6619600717747
 20
142.3302645785312
 30
0.0
 11
192.0090592480595
 21
142.3302645785312
 31
0.0
  0
LINE
  5
4DFF
330
1F
100
AcDbEntity
  8
文字标准层
100
AcDbLine
 10
190.5110543121149
 20
143.8673922698436
 30
0.0
 11
190.240554020238
 21
142.8812394067355
 31
0.0
  0
LINE
  5
4E00
330
1F
100
AcDbEntity
  8
签字
 48
0.1
100
AcDbLine
 10
190.7742434071273
 20
144.8243255974072
 30
0.0
 11
190.5110543121149
 21
143.8673922698436
 31
0.0
  0
LINE
  5
4E01
330
1F
100
AcDbEntity
  8
文字标准层
100
AcDbLine
 10
190.6596709006707
 20
142.330670107112
 30
0.0
 11
191.986152118559
 21
142.330670107112
 31
0.0
  0
HATCH
  5
4E02
330
1F
100
AcDbEntity
  8
文字标准层
100
AcDbHatch
 10
0.0
 20
0.0
 30
0.0
210
0.0
220
0.0
230
1.0
  2
SOLID
 70
     1
 71
     0
 91
        1
 92
        7
 72
     1
 73
     1
 93
       15
 10
191.5048315612229
 20
144.8243255974072
 42
0.0
 10
190.7742434071273
 20
144.8243255974072
 42
0.0
 10
190.5110543121148
 20
143.8673922698435
 42
0.0
 10
190.2405540202378
 20
142.8812394067355
 42
0.3893220614929458
 10
190.6596709006708
 20
142.330670107112
 42
0.0
 10
191.986152118559
 20
142.330670107112
 42
0.0
 10
191.986152118559
 20
142.3302645785311
 42
0.0
 10
192.0090592480595
 20
142.3302645785311
 42
0.1718531295883214
 10
192.2634395390813
 20
142.5179875444964
 42
0.0
 10
192.7598262716363
 20
143.9937065961398
 42
0.0
 10
192.0788695985906
 20
143.9937065961398
 42
0.0
 10
191.7301953536338
 20
142.9810880649574
 42
-0.2680806254990295
 10
191.5974833472732
 20
142.8651076326827
 42
0.0
 10
191.1024926459581
 20
142.8651076326827
 42
-0.4622920720497758
 10
190.987378581141
 20
143.0951475424594
 42
0.0
 97
        0
 75
     0
 76
     1
 47
0.0343480651533947
 98
        1
 10
190.8141838295731
 20
143.938498027422
450
        0
451
        0
460
0.0
461
0.0
452
        0
462
0.0
453
        0
470

  0
HATCH
  5
4E03
330
1F
100
AcDbEntity
  8
文字标准层
100
AcDbHatch
 10
0.0
 20
0.0
 30
0.0
210
0.0
220
0.0
230
1.0
  2
SOLID
 70
     1
 71
     0
 91
        2
 92
        7
 72
     0
 73
     1
 93
        4
 10
192.8597280479749
 20
144.831097815498
 10
192.7056364093379
 20
144.253974038445
 10
193.3944255029804
 20
144.253974038445
 10
193.5534722575124
 20
144.831097815498
 97
        0
 92
        7
 72
     1
 73
     1
 93
       12
 10
195.0910063686497
 20
144.3220740817121
 42
0.0
 10
194.9367957970554
 20
143.8713037640993
 42
0.0
 10
193.4687337972583
 20
143.8713037640993
 42
0.0
 10
193.0050424979439
 20
142.3256783560666
 42
0.0
 10
193.7102379796793
 20
142.3256783560666
 42
0.0
 10
193.9985928433086
 20
143.3001264047911
 42
0.0
 10
195.2193245357768
 20
143.3001264047911
 42
0.1893197390594572
 10
195.5496827675878
 20
143.5536651305003
 42
0.0
 10
195.905817650934
 20
144.6589341875951
 42
0.3387678891760735
 10
195.8235061862202
 20
144.8301294977018
 42
0.0
 10
194.1114888402674
 20
144.8301294977018
 42
0.0
 10
193.9644609925032
 20
144.3220740817121
 42
0.0
 97
        0
 75
     0
 76
     1
 47
0.0854109215093193
 98
        2
 10
193.0761359316207
 20
144.585594640454
 10
194.8701337672074
 20
144.4711776846513
450
        0
451
        0
460
0.0
461
0.0
452
        0
462
0.0
453
        0
470

  0
LINE
  5
4E04
330
1F
100
AcDbEntity
  8
签字
 48
0.1
100
AcDbLine
 10
190.2232051910092
 20
144.831097815498
 30
0.0
 11
202.8750001682234
 21
144.831097815498
 31
0.0
  0
LINE
  5
4E05
330
1F
100
AcDbEntity
  8
签字
 48
0.1
100
AcDbLine
 10
190.2232051910092
 20
144.831097815498
 30
0.0
 11
190.2232051910092
 21
142.3302645785312
 31
0.0
  0
LINE
  5
4E06
330
1F
100
AcDbEntity
  8
签字
 48
0.1
100
AcDbLine
 10
202.8750001682234
 20
144.831097815498
 30
0.0
 11
202.8750001682235
 21
142.3302645785312
 31
0.0
  0
LINE
  5
4E07
330
1F
100
AcDbEntity
  8
签字
 48
0.1
100
AcDbLine
 10
190.2232051910092
 20
142.3302645785312
 30
0.0
 11
202.8750001682235
 21
142.3302645785312
 31
0.0
  0
TEXT
  5
4E08
330
1F
100
AcDbEntity
  8
文字标准层
 62
     4
100
AcDbText
 10
187.329603124846
 20
139.5080212683608
 30
0.0
 40
2.0
  1
UJ6-2.5JD/3LG
  7
黑体字
100
AcDbText
  0
DIMENSION
  5
4E21
102
{ACAD_XDICTIONARY
360
4E2E
102
}
102
{ACAD_REACTORS
330
4E38
102
}
330
1F
100
AcDbEntity
  8
尺寸标注层
100
AcDbDimension
  2
*D21
 10
249.2491026796663
 20
107.131097882598
 30
0.0
 11
249.2491026796663
 21
151.0424921721983
 31
0.0
 70
   160
 71
     5
 42
87.80000020870003
  3
1比1-S
100
AcDbAlignedDimension
 13
203.9690628909163
 23
194.931098091298
 33
0.0
 14
237.5573452737163
 24
107.131097882598
 34
0.0
 50
90.0
100
AcDbRotatedDimension
  0
DIMENSION
  5
4E39
102
{ACAD_XDICTIONARY
360
4E46
102
}
102
{ACAD_REACTORS
330
4E50
102
}
330
1F
100
AcDbEntity
  8
尺寸标注层
100
AcDbDimension
  2
*D22
 10
146.8491029965163
 20
103.1236042059736
 30
0.0
 11
196.5491028380663
 21
103.1236042059736
 31
0.0
 70
   160
 71
     5
 42
99.39999968310004
  3
1比1-S
100
AcDbAlignedDimension
 13
246.2491026796163
 23
109.899198751998
 33
0.0
 14
146.8491029965163
 24
116.9310978826006
 34
0.0
100
AcDbRotatedDimension
  0
LINE
  5
4F8F
330
1F
100
AcDbEntity
  8
引出线层
  6
DIVIDE
 62
     2
 48
0.01
100
AcDbLine
 10
204.0766223492496
 20
194.931098091297
 30
0.0
 11
204.1453898717906
 21
194.931098091297
 31
0.0
  0
LINE
  5
4F90
330
1F
100
AcDbEntity
  8
引出线层
  6
DIVIDE
 62
     2
 48
0.01
100
AcDbLine
 10
204.1453898717906
 20
194.931098091297
 30
0.0
 11
204.2100102051738
 21
194.9075782134044
 31
0.0
  0
LINE
  5
6240
330
1F
100
AcDbEntity
  8
轮廓线层
370
    15
100
AcDbLine
 10
246.2491026796663
 20
88.91807669363421
 30
0.0
 11
246.2491026796663
 21
86.71807669363419
 31
0.0
  0
LINE
  5
6241
330
1F
100
AcDbEntity
  8
轮廓线层
370
    15
100
AcDbLine
 10
243.1491029964663
 20
86.2180766936342
 30
0.0
 11
243.0451883481663
 21
84.73202798833419
 31
0.0
  0
LINE
  5
6242
330
1F
100
AcDbEntity
  8
轮廓线层
370
    15
100
AcDbLine
 10
245.1491029964663
 20
86.7180766936342
 30
0.0
 11
245.1491029964663
 21
86.2180766936342
 31
0.0
  0
LINE
  5
6243
330
1F
100
AcDbEntity
  8
轮廓线层
370
    15
100
AcDbLine
 10
243.1491029964663
 20
86.7180766936342
 30
0.0
 11
243.1491029964663
 21
86.2180766936342
 31
0.0
  0
LINE
  5
6244
330
1F
100
AcDbEntity
  8
轮廓线层
370
    15
100
AcDbLine
 10
245.1491029964663
 20
86.2180766936342
 30
0.0
 11
245.2530176448663
 21
84.73202798833419
 31
0.0
  0
LINE
  5
6245
330
1F
100
AcDbEntity
  8
轮廓线层
370
    15
100
AcDbLine
 10
236.2491026797663
 20
88.91807669363421
 30
0.0
 11
236.2491026797663
 21
86.7180766936342
 31
0.0
  0
LINE
  5
6246
330
1F
100
AcDbEntity
  8
轮廓线层
370
    15
100
AcDbLine
 10
226.2491026397663
 20
88.91807669363421
 30
0.0
 11
226.2491026397663
 21
86.7180766936342
 31
0.0
  0
LINE
  5
6247
330
1F
100
AcDbEntity
  8
轮廓线层
370
    15
100
AcDbLine
 10
222.8491029964663
 20
86.7180766936342
 30
0.0
 11
222.8491029964663
 21
86.2180766936342
 31
0.0
  0
LINE
  5
6248
330
1F
100
AcDbEntity
  8
轮廓线层
370
    15
100
AcDbLine
 10
222.8491029964663
 20
86.2180766936342
 30
0.0
 11
222.9530176448663
 21
84.73202798833419
 31
0.0
  0
LINE
  5
6249
330
1F
100
AcDbEntity
  8
轮廓线层
370
    15
100
AcDbLine
 10
220.8491029964663
 20
86.2180766936342
 30
0.0
 11
220.7451883481663
 21
84.73202798833419
 31
0.0
  0
LINE
  5
624A
330
1F
100
AcDbEntity
  8
轮廓线层
370
    15
100
AcDbLine
 10
220.8491029964663
 20
86.7180766936342
 30
0.0
 11
220.8491029964663
 21
86.2180766936342
 31
0.0
  0
LINE
  5
624B
330
1F
100
AcDbEntity
  8
轮廓线层
370
    15
100
AcDbLine
 10
216.2491026798663
 20
88.91807669363421
 30
0.0
 11
216.2491026798663
 21
86.7180766936342
 31
0.0
  0
LINE
  5
624C
330
1F
100
AcDbEntity
  8
轮廓线层
370
    15
100
AcDbLine
 10
197.5491028380663
 20
86.7180766936342
 30
0.0
 11
197.5491028380663
 21
86.2180766936342
 31
0.0
  0
LINE
  5
624D
330
1F
100
AcDbEntity
  8
轮廓线层
370
    15
100
AcDbLine
 10
197.5491028380663
 20
86.2180766936342
 30
0.0
 11
197.6530174864663
 21
84.73202798833419
 31
0.0
  0
LINE
  5
624E
330
1F
100
AcDbEntity
  8
轮廓线层
370
    15
100
AcDbLine
 10
148.2447011581663
 20
84.5180766936342
 30
0.0
 11
150.0535048347662
 21
84.5180766936342
 31
0.0
  0
LINE
  5
624F
330
1F
100
AcDbEntity
  8
轮廓线层
370
    15
100
AcDbLine
 10
164.4447011581663
 20
84.5180766936342
 30
0.0
 11
166.2535048347663
 21
84.5180766936342
 31
0.0
  0
LINE
  5
6250
330
1F
100
AcDbEntity
  8
轮廓线层
370
    15
100
AcDbLine
 10
195.6447009997663
 20
84.5180766936342
 30
0.0
 11
197.4535046763662
 21
84.5180766936342
 31
0.0
  0
LINE
  5
6251
330
1F
100
AcDbEntity
  8
轮廓线层
370
    15
100
AcDbLine
 10
220.9447011581663
 20
84.5180766936342
 30
0.0
 11
222.7535048347663
 21
84.5180766936342
 31
0.0
  0
LINE
  5
6252
330
1F
100
AcDbEntity
  8
轮廓线层
370
    15
100
AcDbLine
 10
243.2447011581662
 20
84.5180766936342
 30
0.0
 11
245.0535048347663
 21
84.5180766936342
 31
0.0
  0
LINE
  5
6253
330
1F
100
AcDbEntity
  8
轮廓线层
370
    15
100
AcDbLine
 10
148.1491029964662
 20
86.2180766936342
 30
0.0
 11
150.1491029964662
 21
86.2180766936342
 31
0.0
  0
LINE
  5
6254
330
1F
100
AcDbEntity
  8
轮廓线层
370
    15
100
AcDbLine
 10
164.3491029964662
 20
86.2180766936342
 30
0.0
 11
166.3491029964662
 21
86.2180766936342
 31
0.0
  0
LINE
  5
6255
330
1F
100
AcDbEntity
  8
轮廓线层
370
    15
100
AcDbLine
 10
195.5491028380663
 20
86.2180766936342
 30
0.0
 11
197.5491028380663
 21
86.2180766936342
 31
0.0
  0
LINE
  5
6256
330
1F
100
AcDbEntity
  8
轮廓线层
370
    15
100
AcDbLine
 10
220.8491029964663
 20
86.2180766936342
 30
0.0
 11
222.8491029964663
 21
86.2180766936342
 31
0.0
  0
LINE
  5
6257
330
1F
100
AcDbEntity
  8
轮廓线层
370
    15
100
AcDbLine
 10
243.1491029964663
 20
86.2180766936342
 30
0.0
 11
245.1491029964663
 21
86.2180766936342
 31
0.0
  0
LINE
  5
6258
330
1F
100
AcDbEntity
  8
轮廓线层
370
    15
100
AcDbLine
 10
146.8491029965663
 20
86.7180766936342
 30
0.0
 11
246.2491026796663
 21
86.7180766936342
 31
0.0
  0
LINE
  5
6259
330
1F
100
AcDbEntity
  8
轮廓线层
370
    15
100
AcDbLine
 10
195.5491028380663
 20
86.2180766936342
 30
0.0
 11
195.4451881897663
 21
84.73202798833419
 31
0.0
  0
LINE
  5
625A
330
1F
100
AcDbEntity
  8
轮廓线层
370
    15
100
AcDbLine
 10
195.5491028380663
 20
86.7180766936342
 30
0.0
 11
195.5491028380663
 21
86.2180766936342
 31
0.0
  0
LINE
  5
625B
330
1F
100
AcDbEntity
  8
轮廓线层
370
    15
100
AcDbLine
 10
146.8491029965663
 20
88.91807669363421
 30
0.0
 11
246.2491026796663
 21
88.91807669363421
 31
0.0
  0
LINE
  5
625C
330
1F
100
AcDbEntity
  8
轮廓线层
370
    15
100
AcDbLine
 10
170.4638318712663
 20
86.7180766936342
 30
0.0
 11
170.4638318712663
 21
88.91807669363421
 31
0.0
  0
LINE
  5
625D
330
1F
100
AcDbEntity
  8
轮廓线层
370
    15
100
AcDbLine
 10
166.3491029964662
 20
86.7180766936342
 30
0.0
 11
166.3491029964662
 21
86.2180766936342
 31
0.0
  0
LINE
  5
625E
330
1F
100
AcDbEntity
  8
轮廓线层
370
    15
100
AcDbLine
 10
166.3491029964662
 20
86.2180766936342
 30
0.0
 11
166.4530176448662
 21
84.73202798833419
 31
0.0
  0
LINE
  5
625F
330
1F
100
AcDbEntity
  8
轮廓线层
370
    15
100
AcDbLine
 10
164.3491029964662
 20
86.2180766936342
 30
0.0
 11
164.2451883481663
 21
84.73202798833419
 31
0.0
  0
LINE
  5
6260
330
1F
100
AcDbEntity
  8
轮廓线层
370
    15
100
AcDbLine
 10
164.3491029964662
 20
86.7180766936342
 30
0.0
 11
164.3491029964662
 21
86.2180766936342
 31
0.0
  0
LINE
  5
6261
330
1F
100
AcDbEntity
  8
轮廓线层
370
    15
100
AcDbLine
 10
158.5138317679662
 20
86.7180766936342
 30
0.0
 11
158.5138317679662
 21
88.91807669363421
 31
0.0
  0
LINE
  5
6262
330
1F
100
AcDbEntity
  8
轮廓线层
370
    15
100
AcDbLine
 10
148.1491029964662
 20
86.2180766936342
 30
0.0
 11
148.0451883481663
 21
84.73202798833419
 31
0.0
  0
LINE
  5
6263
330
1F
100
AcDbEntity
  8
轮廓线层
370
    15
100
AcDbLine
 10
150.1491029964662
 20
86.7180766936342
 30
0.0
 11
150.1491029964662
 21
86.2180766936342
 31
0.0
  0
LINE
  5
6264
330
1F
100
AcDbEntity
  8
轮廓线层
370
    15
100
AcDbLine
 10
148.1491029964662
 20
86.7180766936342
 30
0.0
 11
148.1491029964662
 21
86.2180766936342
 31
0.0
  0
LINE
  5
6265
330
1F
100
AcDbEntity
  8
轮廓线层
370
    15
100
AcDbLine
 10
146.8491029965663
 20
88.91807669363421
 30
0.0
 11
146.8491029965663
 21
86.7180766936342
 31
0.0
  0
LINE
  5
6266
330
1F
100
AcDbEntity
  8
轮廓线层
370
    15
100
AcDbLine
 10
150.1491029964662
 20
86.2180766936342
 30
0.0
 11
150.2530176448662
 21
84.73202798833419
 31
0.0
  0
ARC
  5
6267
330
1F
100
AcDbEntity
  8
轮廓线层
370
    15
100
AcDbCircle
 10
195.6447009997663
 20
84.71807669363419
 30
0.0
 40
0.2
100
AcDbArc
 50
175.9999998844999
 51
270.0
  0
ARC
  5
6268
330
1F
100
AcDbEntity
  8
轮廓线层
370
    15
100
AcDbCircle
 10
197.4535046763662
 20
84.71807669363419
 30
0.0
 40
0.2
100
AcDbArc
 50
270.0
 51
4.000000115500196
  0
ARC
  5
6269
330
1F
100
AcDbEntity
  8
轮廓线层
370
    15
100
AcDbCircle
 10
220.9447011581663
 20
84.71807669363419
 30
0.0
 40
0.2
100
AcDbArc
 50
175.9999998844999
 51
270.0
  0
ARC
  5
626A
330
1F
100
AcDbEntity
  8
轮廓线层
370
    15
100
AcDbCircle
 10
222.7535048347663
 20
84.71807669363419
 30
0.0
 40
0.2
100
AcDbArc
 50
270.0
 51
4.000000115500196
  0
ARC
  5
626B
330
1F
100
AcDbEntity
  8
轮廓线层
370
    15
100
AcDbCircle
 10
164.4447011581663
 20
84.71807669363419
 30
0.0
 40
0.2
100
AcDbArc
 50
175.9999998844999
 51
270.0
  0
ARC
  5
626C
330
1F
100
AcDbEntity
  8
轮廓线层
370
    15
100
AcDbCircle
 10
166.2535048347663
 20
84.71807669363419
 30
0.0
 40
0.2
100
AcDbArc
 50
270.0
 51
4.000000115500196
  0
ARC
  5
626D
330
1F
100
AcDbEntity
  8
轮廓线层
370
    15
100
AcDbCircle
 10
148.2447011581663
 20
84.71807669363419
 30
0.0
 40
0.2
100
AcDbArc
 50
175.9999998844999
 51
270.0
  0
ARC
  5
626E
330
1F
100
AcDbEntity
  8
轮廓线层
370
    15
100
AcDbCircle
 10
150.0535048347662
 20
84.71807669363419
 30
0.0
 40
0.2
100
AcDbArc
 50
270.0
 51
4.000000115500196
  0
ARC
  5
626F
330
1F
100
AcDbEntity
  8
轮廓线层
370
    15
100
AcDbCircle
 10
243.2447011581662
 20
84.71807669363419
 30
0.0
 40
0.2
100
AcDbArc
 50
175.9999998844999
 51
270.0
  0
ARC
  5
6270
330
1F
100
AcDbEntity
  8
轮廓线层
370
    15
100
AcDbCircle
 10
245.0535048347663
 20
84.71807669363419
 30
0.0
 40
0.2
100
AcDbArc
 50
270.0
 51
4.000000115500196
  0
LINE
  5
629C
102
{ACAD_REACTORS
330
4A1B
102
}
330
1F
100
AcDbEntity
  8
轮廓线层
370
    15
100
AcDbLine
 10
124.1244153501713
 20
185.931098091298
 30
0.0
 11
124.1244153501713
 21
187.931098091298
 31
0.0
  0
ENDSEC
  0
SECTION
  2
OBJECTS
  0
DICTIONARY
  5
C
330
0
100
AcDbDictionary
281
     1
  3
ACAD_CIP_PREVIOUS_PRODUCT_INFO
350
3C03
  3
ACAD_COLOR
350
6B
  3
ACAD_GROUP
350
D
  3
ACAD_LAYOUT
350
1A
  3
ACAD_MATERIAL
350
6A
  3
ACAD_MLEADERSTYLE
350
1A66
  3
ACAD_MLINESTYLE
350
17
  3
ACAD_PLOTSETTINGS
350
19
  3
ACAD_PLOTSTYLENAME
350
E
  3
ACAD_SCALELIST
350
1A54
  3
ACAD_TABLESTYLE
350
1932
  3
ACAD_VISUALSTYLE
350
1921
  3
ACDB_RECOMPOSE_DATA
350
60F3
  3
AcDbVariableDictionary
350
5E
  3
ASE_INDEX_DICTIONARY
350
1805
  3
lxx_dict
350
1A72
  0
DICTIONARY
  5
1990
330
8
100
AcDbDictionary
280
     1
281
     1
  0
DICTIONARY
  5
55C
330
2
100
AcDbDictionary
280
     1
281
     1
  3
ACAD_LAYERFILTERS
360
183E
  3
ACAD_LAYERSTATES
360
55D
  0
DICTIONARY
  5
1BA1
330
10
100
AcDbDictionary
280
     1
281
     1
  3
ADSK_XREC_LAYER_RECONCILED
360
1BA2
  0
DICTIONARY
  5
1BA3
330
53B
100
AcDbDictionary
280
     1
281
     1
  3
ADSK_XREC_LAYER_RECONCILED
360
1BA4
  0
DICTIONARY
  5
1BA5
330
53E
100
AcDbDictionary
280
     1
281
     1
  3
ADSK_XREC_LAYER_RECONCILED
360
1BA6
  0
DICTIONARY
  5
1BA7
330
541
100
AcDbDictionary
280
     1
281
     1
  3
ADSK_XREC_LAYER_RECONCILED
360
1BA8
  0
DICTIONARY
  5
1BA9
330
544
100
AcDbDictionary
280
     1
281
     1
  3
ADSK_XREC_LAYER_RECONCILED
360
1BAA
  0
DICTIONARY
  5
1BAB
330
547
100
AcDbDictionary
280
     1
281
     1
  3
ADSK_XREC_LAYER_RECONCILED
360
1BAC
  0
DICTIONARY
  5
1BAD
330
54A
100
AcDbDictionary
280
     1
281
     1
  3
ADSK_XREC_LAYER_RECONCILED
360
1BAE
  0
DICTIONARY
  5
1BAF
330
15BA
100
AcDbDictionary
280
     1
281
     1
  3
ADSK_XREC_LAYER_RECONCILED
360
1BB0
  0
DICTIONARY
  5
1BB1
330
15BD
100
AcDbDictionary
280
     1
281
     1
  3
ADSK_XREC_LAYER_RECONCILED
360
1BB2
  0
DICTIONARY
  5
1BB3
330
1761
100
AcDbDictionary
280
     1
281
     1
  3
ADSK_XREC_LAYER_RECONCILED
360
1BB4
  0
DICTIONARY
  5
1BB5
330
1778
100
AcDbDictionary
280
     1
281
     1
  3
ADSK_XREC_LAYER_RECONCILED
360
1BB6
  0
DICTIONARY
  5
1D76
330
1F
100
AcDbDictionary
280
     1
281
     1
  3
ACAD_SORTENTS
360
1D77
  0
DICTIONARY
  5
6130
330
501B
100
AcDbDictionary
280
     1
281
     1
  3
ACAD_MTEXT_2008_RT
360
6131
  3
ACAD_MTEXT_RT
360
6342
  0
DICTIONARY
  5
6132
330
5033
100
AcDbDictionary
280
     1
281
     1
  3
ACAD_MTEXT_2008_RT
360
6133
  3
ACAD_MTEXT_RT
360
6343
  0
DICTIONARY
  5
6134
330
504B
100
AcDbDictionary
280
     1
281
     1
  3
ACAD_MTEXT_2008_RT
360
6135
  3
ACAD_MTEXT_RT
360
6344
  0
DICTIONARY
  5
6136
330
512C
100
AcDbDictionary
280
     1
281
     1
  3
ACAD_MTEXT_2008_RT
360
6137
  3
ACAD_MTEXT_RT
360
6345
  0
DICTIONARY
  5
613C
330
54ED
100
AcDbDictionary
280
     1
281
     1
  3
ACAD_MTEXT_2008_RT
360
613D
  3
ACAD_MTEXT_RT
360
6348
  0
DICTIONARY
  5
6138
330
515C
100
AcDbDictionary
280
     1
281
     1
  3
ACAD_MTEXT_2008_RT
360
6139
  3
ACAD_MTEXT_RT
360
6346
  0
DICTIONARY
  5
613A
330
5174
100
AcDbDictionary
280
     1
281
     1
  3
ACAD_MTEXT_2008_RT
360
613B
  3
ACAD_MTEXT_RT
360
6347
  0
DICTIONARY
  5
618B
330
600B
100
AcDbDictionary
280
     1
281
     1
  3
ACAD_MTEXT_RT
360
6349
  0
DICTIONARY
  5
618D
330
6018
100
AcDbDictionary
280
     1
281
     1
  3
ACAD_MTEXT_RT
360
634A
  0
DICTIONARY
  5
4A0F
330
4A00
100
AcDbDictionary
280
     1
281
     1
  3
ACAD_DIMASSOC
360
4A1B
  0
DICTIONARY
  5
4A29
330
4A1C
100
AcDbDictionary
280
     1
281
     1
  3
ACAD_DIMASSOC
360
4A33
  0
DICTIONARY
  5
4E2E
330
4E21
100
AcDbDictionary
280
     1
281
     1
  3
ACAD_DIMASSOC
360
4E38
  0
DICTIONARY
  5
4E46
330
4E39
100
AcDbDictionary
280
     1
281
     1
  3
ACAD_DIMASSOC
360
4E50
  0
XRECORD
  5
3C03
102
{ACAD_REACTORS
330
C
102
}
330
C
100
AcDbXrecord
280
     1
300
ACD
300
2012
300
ACD_F_S
  0
DICTIONARY
  5
6B
102
{ACAD_REACTORS
330
C
102
}
330
C
100
AcDbDictionary
281
     1
  0
DICTIONARY
  5
D
102
{ACAD_REACTORS
330
C
102
}
330
C
100
AcDbDictionary
281
     1
  0
DICTIONARY
  5
1A
102
{ACAD_REACTORS
330
C
102
}
330
C
100
AcDbDictionary
281
     1
  3
Model
350
22
  3
布局1
350
51
  3
布局2
350
56
  0
DICTIONARY
  5
6A
102
{ACAD_REACTORS
330
C
102
}
330
C
100
AcDbDictionary
281
     1
  3
ByBlock
350
15D0
  3
ByLayer
350
15D3
  3
Global
350
559
  0
DICTIONARY
  5
1A66
102
{ACAD_REACTORS
330
C
102
}
330
C
100
AcDbDictionary
281
     1
  3
Standard
350
1A67
  0
DICTIONARY
  5
17
102
{ACAD_REACTORS
330
C
102
}
330
C
100
AcDbDictionary
281
     1
  3
Standard
350
18
  0
DICTIONARY
  5
19
102
{ACAD_REACTORS
330
C
102
}
330
C
100
AcDbDictionary
281
     1
  0
ACDBDICTIONARYWDFLT
  5
E
102
{ACAD_REACTORS
330
C
102
}
330
C
100
AcDbDictionary
281
     1
  3
Normal
350
F
100
AcDbDictionaryWithDefault
340
F
  0
DICTIONARY
  5
1A54
102
{ACAD_REACTORS
330
C
102
}
330
C
100
AcDbDictionary
281
     1
  3
A0
350
1A55
  3
A1
350
1A56
  3
A2
350
1A57
  3
A3
350
1A58
  3
A4
350
1A59
  3
A5
350
1A5A
  3
A6
350
1A5B
  3
A7
350
1A5C
  3
A8
350
1A5D
  3
A9
350
1A5E
  3
B0
350
1A5F
  3
B1
350
1A60
  3
B2
350
1A61
  3
B3
350
1A62
  3
B4
350
1A63
  3
B5
350
1A64
  3
B6
350
1A65
  0
DICTIONARY
  5
1932
102
{ACAD_REACTORS
330
C
102
}
330
C
100
AcDbDictionary
281
     1
  3
Standard
350
1933
  0
DICTIONARY
  5
1921
102
{ACAD_REACTORS
330
C
102
}
330
C
100
AcDbDictionary
281
     1
  3
2dWireframe
350
1927
  3
3D Hidden
350
1929
  3
3dWireframe
350
1928
  3
Basic
350
1926
  3
Brighten
350
192D
  3
ColorChange
350
1931
  3
Conceptual
350
192A
  3
Dim
350
192C
  3
EdgeColorOff
350
1A53
  3
Facepattern
350
1930
  3
Flat
350
1922
  3
FlatWithEdges
350
1923
  3
Gouraud
350
1924
  3
GouraudWithEdges
350
1925
  3
Hidden
350
3BF8
  3
JitterOff
350
1A51
  3
Linepattern
350
192F
  3
OverhangOff
350
1A52
  3
Realistic
350
192B
  3
Shaded
350
3BFD
  3
Shaded with edges
350
3BFC
  3
Shades of Gray
350
3BF9
  3
Sketchy
350
3BFA
  3
Thicken
350
192E
  3
Wireframe
350
3BF7
  3
X-Ray
350
3BFB
  0
XRECORD
  5
60F3
102
{ACAD_REACTORS
330
C
102
}
330
C
100
AcDbXrecord
280
     1
 90
        1
330
1933
  0
DICTIONARY
  5
5E
102
{ACAD_REACTORS
330
C
102
}
330
C
100
AcDbDictionary
281
     1
  3
CANNOSCALE
350
1C6B
  3
CMLEADERSTYLE
350
1C6A
  3
CTABLESTYLE
350
19B4
  3
DIMASSOC
350
5F
  3
HIDETEXT
350
63
  3
PROJECTNAME
350
17D7
  0
DICTIONARY
  5
1805
102
{ACAD_REACTORS
330
C
102
}
330
C
100
AcDbDictionary
281
     1
  3
ASEBlockHierarchyIndexRecord
350
1806
1001
DCO15
1040
1693999610.781
  0
DICTIONARY
  5
1A72
102
{ACAD_REACTORS
330
C
102
}
330
C
100
AcDbDictionary
281
     1
  3
lxx_dimth
350
1A73
  0
DICTIONARY
  5
183E
102
{ACAD_REACTORS
330
55C
102
}
330
55C
100
AcDbDictionary
281
     1
  0
DICTIONARY
  5
55D
102
{ACAD_REACTORS
330
55C
102
}
330
55C
100
AcDbDictionary
281
     1
  0
XRECORD
  5
1BA2
102
{ACAD_REACTORS
330
1BA1
102
}
330
1BA1
100
AcDbXrecord
280
     1
290
     1
  0
XRECORD
  5
1BA4
102
{ACAD_REACTORS
330
1BA3
102
}
330
1BA3
100
AcDbXrecord
280
     1
290
     1
  0
XRECORD
  5
1BA6
102
{ACAD_REACTORS
330
1BA5
102
}
330
1BA5
100
AcDbXrecord
280
     1
290
     1
  0
XRECORD
  5
1BA8
102
{ACAD_REACTORS
330
1BA7
102
}
330
1BA7
100
AcDbXrecord
280
     1
290
     1
  0
XRECORD
  5
1BAA
102
{ACAD_REACTORS
330
1BA9
102
}
330
1BA9
100
AcDbXrecord
280
     1
290
     1
  0
XRECORD
  5
1BAC
102
{ACAD_REACTORS
330
1BAB
102
}
330
1BAB
100
AcDbXrecord
280
     1
290
     1
  0
XRECORD
  5
1BAE
102
{ACAD_REACTORS
330
1BAD
102
}
330
1BAD
100
AcDbXrecord
280
     1
290
     1
  0
XRECORD
  5
1BB0
102
{ACAD_REACTORS
330
1BAF
102
}
330
1BAF
100
AcDbXrecord
280
     1
290
     1
  0
XRECORD
  5
1BB2
102
{ACAD_REACTORS
330
1BB1
102
}
330
1BB1
100
AcDbXrecord
280
     1
290
     1
  0
XRECORD
  5
1BB4
102
{ACAD_REACTORS
330
1BB3
102
}
330
1BB3
100
AcDbXrecord
280
     1
290
     1
  0
XRECORD
  5
1BB6
102
{ACAD_REACTORS
330
1BB5
102
}
330
1BB5
100
AcDbXrecord
280
     1
290
     1
  0
SORTENTSTABLE
  5
1D77
102
{ACAD_REACTORS
330
1D76
102
}
330
1D76
100
AcDbSortentsTable
330
1F
331
4566
  5
456A
331
4547
  5
454B
331
4F90
  5
6240
331
2480
  5
2480
331
4567
  5
456B
331
24A0
  5
24A0
331
2481
  5
2481
331
24A1
  5
24A1
331
2482
  5
2482
331
24A2
  5
24A2
331
2483
  5
2483
331
24A3
  5
24A3
331
2484
  5
2484
331
2485
  5
2485
331
24A4
  5
24A4
331
2486
  5
2486
331
24A5
  5
24A5
331
2470
  5
2470
331
2487
  5
2487
331
24A6
  5
24A6
331
2488
  5
2488
331
2471
  5
2471
331
24A7
  5
24A7
331
2489
  5
2489
331
2472
  5
2472
331
24A8
  5
24A8
331
4298
  5
429A
331
248A
  5
248A
331
2473
  5
2473
331
24A9
  5
24A9
331
4299
  5
429B
331
248B
  5
248B
331
2474
  5
2474
331
24AA
  5
24AA
331
42D0
  5
42D3
331
42B9
  5
42BC
331
248C
  5
248C
331
2475
  5
2475
331
24AB
  5
24AB
331
42D1
  5
42D4
331
42BA
  5
42BE
331
248D
  5
248D
331
2476
  5
2476
331
42D2
  5
42D5
331
248E
  5
248E
331
2477
  5
2477
331
24AD
  5
24AD
331
429C
  5
429E
331
42D3
  5
42D6
331
42BC
  5
42BF
331
429D
  5
429F
331
248F
  5
248F
331
2478
  5
2478
331
24AE
  5
24AE
331
42D4
  5
42D7
331
42BD
  5
42C0
331
2479
  5
2479
331
2490
  5
2490
331
24AF
  5
24AF
331
42D5
  5
42D8
331
42BE
  5
42C1
331
247A
  5
247A
331
2491
  5
2491
331
24B0
  5
24B0
331
429F
  5
42A1
331
42D6
  5
42D9
331
42BF
  5
42C2
331
247B
  5
247B
331
2492
  5
2492
331
24B1
  5
24B1
331
4A1C
  5
4DC8
331
42D7
  5
42DA
331
42C0
  5
42C3
331
247C
  5
247C
331
2493
  5
2493
331
24B2
  5
24B2
331
42D8
  5
42DC
331
42C1
  5
42C4
331
247D
  5
247D
331
2494
  5
2494
331
24B3
  5
24B3
331
42D9
  5
42DD
331
42C2
  5
42C5
331
24B4
  5
24B4
331
247E
  5
247E
331
2495
  5
2495
331
42DA
  5
4549
331
42C3
  5
42C6
331
247F
  5
247F
331
2496
  5
2496
331
24B5
  5
24B5
331
6248
  5
6249
331
42C4
  5
42C7
331
2497
  5
2497
331
4DC8
  5
4DCA
331
6260
  5
6261
331
6249
  5
624A
331
42C5
  5
42C8
331
2498
  5
2498
331
4DC9
  5
4DCB
331
6261
  5
6262
331
624A
  5
624B
331
42C6
  5
42C9
331
42A7
  5
42A9
331
2499
  5
2499
331
4DCA
  5
4DCC
331
6262
  5
6263
331
624B
  5
624C
331
42C7
  5
42CA
331
249A
  5
249A
331
25A1
  5
25A1
331
4DCB
  5
4DCD
331
6263
  5
6264
331
624C
  5
624D
331
42C8
  5
42CB
331
249B
  5
249B
331
4DCC
  5
4DCE
331
6264
  5
6265
331
624D
  5
624E
331
42C9
  5
42CC
331
42AA
  5
42AD
331
249C
  5
249C
331
4DCD
  5
4DCF
331
6265
  5
6266
331
624E
  5
624F
331
42CA
  5
42CD
331
42AB
  5
42AE
331
249D
  5
249D
331
4DCE
  5
4DD0
331
4A00
  5
4A4C
331
6266
  5
6267
331
624F
  5
6250
331
42CB
  5
42CE
331
42AC
  5
42AF
331
249E
  5
249E
331
4DCF
  5
4DD1
331
6267
  5
6268
331
6250
  5
6251
331
42CC
  5
42CF
331
42AD
  5
42B0
331
249F
  5
249F
331
4DD0
  5
4DD2
331
4DE0
  5
4DE2
331
6268
  5
6269
331
6251
  5
6252
331
42CD
  5
42D0
331
42AE
  5
42B7
331
428F
  5
4291
331
4DD1
  5
4DD3
331
4E00
  5
4E02
331
4DE1
  5
4DE3
331
6269
  5
626A
331
6252
  5
6253
331
4548
  5
454C
331
42CE
  5
42D1
331
4DD2
  5
4DD4
331
4E01
  5
4E03
331
4DE2
  5
4DE4
331
626A
  5
626B
331
6253
  5
6254
331
4568
  5
456C
331
4549
  5
454F
331
42CF
  5
42D2
331
4291
  5
4293
331
4DD3
  5
4DD5
331
4E21
  5
4EA1
331
4E02
  5
4E04
331
4DE3
  5
4DE5
331
626B
  5
626C
331
6254
  5
6255
331
4569
  5
4740
331
4292
  5
4294
331
4DD4
  5
4DD6
331
4E03
  5
4E05
331
4DE4
  5
4DE6
331
626C
  5
626D
331
6255
  5
6256
331
4293
  5
4295
331
4DD5
  5
4DD7
331
4E04
  5
4E06
331
4DE5
  5
4DE7
331
626D
  5
626E
331
6256
  5
6257
331
454C
  5
4550
331
4294
  5
4296
331
4DD6
  5
4DD8
331
4E05
  5
4E07
331
4DE6
  5
4DE8
331
626E
  5
626F
331
6257
  5
6258
331
454D
  5
4551
331
4DD7
  5
4DD9
331
4E06
  5
4E0D
331
4DE7
  5
4DE9
331
626F
  5
6270
331
6258
  5
6259
331
454E
  5
4552
331
42B5
  5
42B8
331
4DD8
  5
4DDA
331
4E07
  5
4E1D
331
4DE8
  5
4DEA
331
6270
  5
629C
331
6259
  5
625A
331
454F
  5
4553
331
42B6
  5
42BB
331
4DD9
  5
4DDB
331
4E08
  5
4E39
331
4DE9
  5
4DEB
331
625A
  5
625B
331
4550
  5
4554
331
4DDA
  5
4DDC
331
4DEA
  5
4DEC
331
625B
  5
625C
331
4551
  5
4555
331
4DDB
  5
4DDD
331
4DEB
  5
4DED
331
625C
  5
625D
331
4552
  5
4556
331
4DDC
  5
4DDE
331
4DEC
  5
4DEE
331
625D
  5
625E
331
4553
  5
4557
331
4DDD
  5
4DDF
331
4DED
  5
4DEF
331
625E
  5
625F
331
4554
  5
4558
331
4DDE
  5
4DE0
331
4DEE
  5
4DF0
331
625F
  5
6260
331
6240
  5
6241
331
4555
  5
4559
331
4DDF
  5
4DE1
331
4DEF
  5
4DF1
331
6241
  5
6242
331
4556
  5
455A
331
4DF0
  5
4DF2
331
6242
  5
6243
331
4557
  5
455B
331
4DF1
  5
4DF3
331
6243
  5
6244
331
4558
  5
455C
331
4DF2
  5
4DF4
331
6244
  5
6245
331
4559
  5
455D
331
4E39
  5
4F8E
331
4DF3
  5
4DF5
331
6245
  5
6246
331
455A
  5
455E
331
4DF4
  5
4DF6
331
6246
  5
6247
331
455B
  5
455F
331
4DF5
  5
4DF7
331
6247
  5
6248
331
629C
  5
42AC
331
455C
  5
4560
331
4DC7
  5
4DC9
331
4DF6
  5
4DF8
331
455D
  5
4561
331
4DF7
  5
4DF9
331
455E
  5
4562
331
4DF8
  5
4DFA
331
455F
  5
4563
331
4DF9
  5
4DFB
331
4560
  5
4564
331
4DFA
  5
4DFC
331
4561
  5
4565
331
4DFB
  5
4DFD
331
4562
  5
4566
331
4DFC
  5
4DFE
331
4563
  5
4567
331
4DFD
  5
4DFF
331
4564
  5
4568
331
4DFE
  5
4E00
331
4565
  5
4569
331
4546
  5
454A
331
4F8F
  5
4F91
331
4DFF
  5
4E01
  0
XRECORD
  5
6131
102
{ACAD_REACTORS
330
6130
102
}
330
6130
100
AcDbXrecord
280
     1
 40
7794.0
  1
\A1;162.5°
  0
XRECORD
  5
6342
102
{ACAD_REACTORS
330
6130
102
}
330
6130
100
AcDbXrecord
280
     1
 40
7794.0
  1
\A1;162.5°
  0
XRECORD
  5
6133
102
{ACAD_REACTORS
330
6132
102
}
330
6132
100
AcDbXrecord
280
     1
 40
7794.0
  1
\A1;162.5°
  0
XRECORD
  5
6343
102
{ACAD_REACTORS
330
6132
102
}
330
6132
100
AcDbXrecord
280
     1
 40
7794.0
  1
\A1;162.5°
  0
XRECORD
  5
6135
102
{ACAD_REACTORS
330
6134
102
}
330
6134
100
AcDbXrecord
280
     1
 40
6075.0
  1
\A1;160°
  0
XRECORD
  5
6344
102
{ACAD_REACTORS
330
6134
102
}
330
6134
100
AcDbXrecord
280
     1
 40
6075.0
  1
\A1;160°
  0
XRECORD
  5
6137
102
{ACAD_REACTORS
330
6136
102
}
330
6136
100
AcDbXrecord
280
     1
 40
6045.0
  1
\A1;110°
  0
XRECORD
  5
6345
102
{ACAD_REACTORS
330
6136
102
}
330
6136
100
AcDbXrecord
280
     1
 40
6045.0
  1
\A1;110°
  0
XRECORD
  5
613D
102
{ACAD_REACTORS
330
613C
102
}
330
613C
100
AcDbXrecord
280
     1
 40
6045.0
  1
\A1;110°
  0
XRECORD
  5
6348
102
{ACAD_REACTORS
330
613C
102
}
330
613C
100
AcDbXrecord
280
     1
 40
6045.0
  1
\A1;110°
  0
XRECORD
  5
6139
102
{ACAD_REACTORS
330
6138
102
}
330
6138
100
AcDbXrecord
280
     1
 40
6045.0
  1
\A1;110°
  0
XRECORD
  5
6346
102
{ACAD_REACTORS
330
6138
102
}
330
6138
100
AcDbXrecord
280
     1
 40
6045.0
  1
\A1;110°
  0
XRECORD
  5
613B
102
{ACAD_REACTORS
330
613A
102
}
330
613A
100
AcDbXrecord
280
     1
 40
6045.0
  1
\A1;110°
  0
XRECORD
  5
6347
102
{ACAD_REACTORS
330
613A
102
}
330
613A
100
AcDbXrecord
280
     1
 40
6045.0
  1
\A1;110°
  0
XRECORD
  5
6349
102
{ACAD_REACTORS
330
618B
102
}
330
618B
100
AcDbXrecord
280
     1
 40
4590.0
  1
\A1;8°
  0
XRECORD
  5
634A
102
{ACAD_REACTORS
330
618D
102
}
330
618D
100
AcDbXrecord
280
     1
 40
5297.0
  1
\A1;14°
  0
DIMASSOC
  5
4A1B
102
{ACAD_REACTORS
330
4A0F
102
}
330
4A0F
100
AcDbDimAssoc
330
4A00
 90
        3
 70
     0
 71
     0
  1
AcDbOsnapPointRef
 72
    13
331
42A7
 73
     2
 91
        0
 40
0.0
 10
0.0
 20
0.0
 30
2.000000000000000E+50
 75
     0
  1
AcDbOsnapPointRef
 72
    13
331
429F
 73
     2
 91
        0
 40
0.0
 10
0.0
 20
0.0
 30
2.000000000000000E+50
 75
     0
  0
DIMASSOC
  5
4A33
102
{ACAD_REACTORS
330
4A29
102
}
330
4A29
100
AcDbDimAssoc
330
4A1C
 90
        2
 70
     0
 71
     0
  1
AcDbOsnapPointRef
 72
     1
331
42AD
 73
     2
 91
        0
 40
1.0
 10
0.0
 20
0.0
 30
2.000000000000000E+50
 75
     0
  0
DIMASSOC
  5
4E38
102
{ACAD_REACTORS
330
4E2E
102
}
330
4E2E
100
AcDbDimAssoc
330
4E21
 90
        1
 70
     0
 71
     0
  1
AcDbOsnapPointRef
 72
     5
331
4552
 73
     2
 91
        0
 40
1.570796326794896
 10
0.0
 20
0.0
 30
0.0
 75
     0
  0
DIMASSOC
  5
4E50
102
{ACAD_REACTORS
330
4E46
102
}
330
4E46
100
AcDbDimAssoc
330
4E39
 90
        3
 70
     0
 71
     0
  1
AcDbOsnapPointRef
 72
     1
331
42DA
 73
     2
 91
        0
 40
1.0
 10
0.0
 20
0.0
 30
2.000000000000000E+50
 75
     0
  1
AcDbOsnapPointRef
 72
     6
331
42BD
 73
     2
 91
        0
 40
0.0
 10
0.0
 20
0.0
 30
0.0
332
455F
 74
     2
 92
        0
 75
     0
  0
LAYOUT
  5
22
102
{ACAD_XDICTIONARY
360
1BC0
102
}
102
{ACAD_REACTORS
330
1A
102
}
330
1A
100
AcDbPlotSettings
  1

  2
none_device
  4
ANSI_A_(8.50_x_11.00_Inches)
  6

 40
6.349999904632568
 41
19.04999923706055
 42
6.350006103515625
 43
19.04998779296875
 44
215.8999938964844
 45
279.3999938964844
 46
0.0
 47
0.0
 48
0.0
 49
0.0
140
0.0
141
0.0
142
1.0
143
78.436453180766
 70
 11952
 72
     0
 73
     1
 74
     0
  7

 75
     0
147
0.0127491741332998
 76
     0
 77
     2
 78
   300
148
0.0
149
0.0
100
AcDbLayout
  1
Model
 70
     1
 71
     0
 10
0.0
 20
0.0
 11
12.0
 21
9.0
 12
0.0
 22
0.0
 32
0.0
 14
0.0
 24
0.0
 34
0.0
 15
0.0
 25
0.0
 35
0.0
146
0.0
 13
0.0
 23
0.0
 33
0.0
 16
1.0
 26
0.0
 36
0.0
 17
0.0
 27
1.0
 37
0.0
 76
     0
330
1F
331
191F
  0
LAYOUT
  5
51
102
{ACAD_REACTORS
330
1A
102
}
330
1A
100
AcDbPlotSettings
  1

  2
None
  4

  6

 40
0.0
 41
0.0
 42
0.0
 43
0.0
 44
0.0
 45
0.0
 46
0.0
 47
0.0
 48
0.0
 49
0.0
140
0.0
141
0.0
142
1.0
143
1.0
 70
   688
 72
     0
 73
     0
 74
     5
  7

 75
    16
147
1.0
 76
     0
 77
     2
 78
   300
148
0.0
149
0.0
100
AcDbLayout
  1
布局1
 70
     1
 71
     1
 10
0.0
 20
0.0
 11
12.0
 21
9.0
 12
0.0
 22
0.0
 32
0.0
 14
0.0
 24
0.0
 34
0.0
 15
0.0
 25
0.0
 35
0.0
146
0.0
 13
0.0
 23
0.0
 33
0.0
 16
1.0
 26
0.0
 36
0.0
 17
0.0
 27
1.0
 37
0.0
 76
     0
330
50
  0
LAYOUT
  5
56
102
{ACAD_REACTORS
330
1A
102
}
330
1A
100
AcDbPlotSettings
  1

  2
None
  4

  6

 40
0.0
 41
0.0
 42
0.0
 43
0.0
 44
0.0
 45
0.0
 46
0.0
 47
0.0
 48
0.0
 49
0.0
140
0.0
141
0.0
142
1.0
143
1.0
 70
   688
 72
     0
 73
     0
 74
     5
  7

 75
    16
147
1.0
 76
     0
 77
     2
 78
   300
148
0.0
149
0.0
100
AcDbLayout
  1
布局2
 70
     1
 71
     2
 10
0.0
 20
0.0
 11
12.0
 21
9.0
 12
0.0
 22
0.0
 32
0.0
 14
0.0
 24
0.0
 34
0.0
 15
0.0
 25
0.0
 35
0.0
146
0.0
 13
0.0
 23
0.0
 33
0.0
 16
1.0
 26
0.0
 36
0.0
 17
0.0
 27
1.0
 37
0.0
 76
     0
330
55
  0
MATERIAL
  5
15D0
102
{ACAD_XDICTIONARY
360
633D
102
}
102
{ACAD_REACTORS
330
6A
102
}
330
6A
100
AcDbMaterial
  1
ByBlock
  0
MATERIAL
  5
15D3
102
{ACAD_XDICTIONARY
360
633F
102
}
102
{ACAD_REACTORS
330
6A
102
}
330
6A
100
AcDbMaterial
  1
ByLayer
  0
MATERIAL
  5
559
102
{ACAD_XDICTIONARY
360
633B
102
}
102
{ACAD_REACTORS
330
6A
102
}
330
6A
100
AcDbMaterial
  1
Global
  0
ACAD_PROXY_OBJECT
  5
1A67
102
{ACAD_REACTORS
330
1A66
102
}
330
1A66
100
AcDbProxyObject
 90
      499
 91
      510
 95
  6815769
 70
     0
 93
      744
310
40901902A40600000030400FEFFFFFF8000000000000008102B5E8DC0F42B5CFD095374616E646172640000000000000004102405064068000000C1000000000000000410000000000000004102000000304015D90000000000000C03F00
340
14
340
0
340
11
340
0
 94
        0
1001
ACAD_MLEADERVER
1070
     2
  0
MLINESTYLE
  5
18
102
{ACAD_REACTORS
330
17
102
}
330
17
100
AcDbMlineStyle
  2
STANDARD
 70
     0
  3

 62
   256
 51
90.0
 52
90.0
 71
     2
 49
0.5
 62
   256
  6
BYLAYER
 49
-0.5
 62
   256
  6
BYLAYER
  0
ACDBPLACEHOLDER
  5
F
102
{ACAD_REACTORS
330
E
102
}
330
E
  0
ACAD_PROXY_OBJECT
  5
1A55
102
{ACAD_REACTORS
330
1A54
102
}
330
1A54
100
AcDbProxyObject
 90
      499
 91
      509
 95
  6815769
 70
     0
 93
       49
310
904313A31005CC
 94
        0
  0
ACAD_PROXY_OBJECT
  5
1A56
102
{ACAD_REACTORS
330
1A54
102
}
330
1A54
100
AcDbProxyObject
 90
      499
 91
      509
 95
  6815769
 70
     0
 93
      113
310
904313A3200400000000000000404C
 94
        0
  0
ACAD_PROXY_OBJECT
  5
1A57
102
{ACAD_REACTORS
330
1A54
102
}
330
1A54
100
AcDbProxyObject
 90
      499
 91
      509
 95
  6815769
 70
     0
 93
      113
310
904313A3400400000000000010404C
 94
        0
  0
ACAD_PROXY_OBJECT
  5
1A58
102
{ACAD_REACTORS
330
1A54
102
}
330
1A54
100
AcDbProxyObject
 90
      499
 91
      509
 95
  6815769
 70
     0
 93
      113
310
904313A3500400000000000014404C
 94
        0
  0
ACAD_PROXY_OBJECT
  5
1A59
102
{ACAD_REACTORS
330
1A54
102
}
330
1A54
100
AcDbProxyObject
 90
      499
 91
      509
 95
  6815769
 70
     0
 93
      113
310
904313A3800400000000000020404C
 94
        0
  0
ACAD_PROXY_OBJECT
  5
1A5A
102
{ACAD_REACTORS
330
1A54
102
}
330
1A54
100
AcDbProxyObject
 90
      499
 91
      509
 95
  6815769
 70
     0
 93
      121
310
905313A313000400000000000024404C
 94
        0
  0
ACAD_PROXY_OBJECT
  5
1A5B
102
{ACAD_REACTORS
330
1A54
102
}
330
1A54
100
AcDbProxyObject
 90
      499
 91
      509
 95
  6815769
 70
     0
 93
      121
310
905313A313600400000000000030404C
 94
        0
  0
ACAD_PROXY_OBJECT
  5
1A5C
102
{ACAD_REACTORS
330
1A54
102
}
330
1A54
100
AcDbProxyObject
 90
      499
 91
      509
 95
  6815769
 70
     0
 93
      121
310
905313A323000400000000000034404C
 94
        0
  0
ACAD_PROXY_OBJECT
  5
1A5D
102
{ACAD_REACTORS
330
1A54
102
}
330
1A54
100
AcDbProxyObject
 90
      499
 91
      509
 95
  6815769
 70
     0
 93
      121
310
905313A33300040000000000003E404C
 94
        0
  0
ACAD_PROXY_OBJECT
  5
1A5E
102
{ACAD_REACTORS
330
1A54
102
}
330
1A54
100
AcDbProxyObject
 90
      499
 91
      509
 95
  6815769
 70
     0
 93
      121
310
905313A343000400000000000044404C
 94
        0
  0
ACAD_PROXY_OBJECT
  5
1A5F
102
{ACAD_REACTORS
330
1A54
102
}
330
1A54
100
AcDbProxyObject
 90
      499
 91
      509
 95
  6815769
 70
     0
 93
      121
310
905313A353000400000000000049404C
 94
        0
  0
ACAD_PROXY_OBJECT
  5
1A60
102
{ACAD_REACTORS
330
1A54
102
}
330
1A54
100
AcDbProxyObject
 90
      499
 91
      509
 95
  6815769
 70
     0
 93
      129
310
906313A31303000400000000000059404C
 94
        0
  0
ACAD_PROXY_OBJECT
  5
1A61
102
{ACAD_REACTORS
330
1A54
102
}
330
1A54
100
AcDbProxyObject
 90
      499
 91
      509
 95
  6815769
 70
     0
 93
      113
310
904323A3100000000000000001014C
 94
        0
  0
ACAD_PROXY_OBJECT
  5
1A62
102
{ACAD_REACTORS
330
1A54
102
}
330
1A54
100
AcDbProxyObject
 90
      499
 91
      509
 95
  6815769
 70
     0
 93
      113
310
904343A3100000000000000041014C
 94
        0
  0
ACAD_PROXY_OBJECT
  5
1A63
102
{ACAD_REACTORS
330
1A54
102
}
330
1A54
100
AcDbProxyObject
 90
      499
 91
      509
 95
  6815769
 70
     0
 93
      113
310
904383A3100000000000000081014C
 94
        0
  0
ACAD_PROXY_OBJECT
  5
1A64
102
{ACAD_REACTORS
330
1A54
102
}
330
1A54
100
AcDbProxyObject
 90
      499
 91
      509
 95
  6815769
 70
     0
 93
      121
310
90531303A3100000000000000091014C
 94
        0
  0
ACAD_PROXY_OBJECT
  5
1A65
102
{ACAD_REACTORS
330
1A54
102
}
330
1A54
100
AcDbProxyObject
 90
      499
 91
      509
 95
  6815769
 70
     0
 93
      129
310
9063130303A3100000000000000165014C
 94
        0
  0
TABLESTYLE
  5
1933
102
{ACAD_XDICTIONARY
360
1C38
102
}
102
{ACAD_REACTORS
330
1932
102
}
330
1932
100
AcDbTableStyle
  3
Standard
 70
     0
 71
     0
 40
1.5
 41
1.5
280
     0
281
     0
  7
Standard
140
4.5
170
     2
 62
     0
 63
     7
283
     0
274
    -2
284
     1
 64
     0
275
    -2
285
     1
 65
     0
276
    -2
286
     1
 66
     0
277
    -2
287
     1
 67
     0
278
    -2
288
     1
 68
     0
279
    -2
289
     1
 69
     0
  7
Standard
140
6.0
170
     5
 62
     0
 63
     7
283
     0
274
    -2
284
     1
 64
     0
275
    -2
285
     1
 65
     0
276
    -2
286
     1
 66
     0
277
    -2
287
     1
 67
     0
278
    -2
288
     1
 68
     0
279
    -2
289
     1
 69
     0
  7
Standard
140
4.5
170
     5
 62
     0
 63
     7
283
     0
274
    -2
284
     1
 64
     0
275
    -2
285
     1
 65
     0
276
    -2
286
     1
 66
     0
277
    -2
287
     1
 67
     0
278
    -2
288
     1
 68
     0
279
    -2
289
     1
 69
     0
  0
VISUALSTYLE
  5
1927
102
{ACAD_XDICTIONARY
360
6105
102
}
102
{ACAD_REACTORS
330
1921
102
}
330
1921
100
AcDbVisualStyle
  2
2dWireframe
 70
     4
 71
     0
 72
     2
 73
     0
 90
        0
 40
-0.6
 41
-30.0
 62
     5
 63
     7
421
 16777215
 74
     1
 91
        4
 64
     7
 65
   257
 75
     1
175
     1
 42
1.0
 92
        0
 66
   257
 43
1.0
 76
     1
 77
     6
 78
     2
 67
     7
 79
     5
170
     0
171
     0
290
     0
174
     0
 93
        1
 44
0.0
173
     0
291
     0
 45
0.0
1001
ACAD
1000
AcDbSavedByObjectVersion
1070
     0
  0
VISUALSTYLE
  5
1929
102
{ACAD_XDICTIONARY
360
6109
102
}
102
{ACAD_REACTORS
330
1921
102
}
330
1921
100
AcDbVisualStyle
  2
3D Hidden
 70
     6
 71
     1
 72
     2
 73
     2
 90
        0
 40
-0.6
 41
-30.0
 62
     5
 63
     7
421
 16777215
 74
     2
 91
        2
 64
     7
 65
   257
 75
     2
175
     1
 42
40.0
 92
        0
 66
   257
 43
1.0
 76
     1
 77
     6
 78
     2
 67
     7
 79
     3
170
     0
171
     0
290
     0
174
     0
 93
        1
 44
0.0
173
     0
291
     0
 45
0.0
1001
ACAD
1000
AcDbSavedByObjectVersion
1070
     0
  0
VISUALSTYLE
  5
1928
102
{ACAD_XDICTIONARY
360
6107
102
}
102
{ACAD_REACTORS
330
1921
102
}
330
1921
100
AcDbVisualStyle
  2
3dWireframe
 70
     5
 71
     0
 72
     2
 73
     0
 90
        0
 40
-0.6
 41
-30.0
 62
     5
 63
     7
421
 16777215
 74
     1
 91
        4
 64
     7
 65
   257
 75
     1
175
     1
 42
1.0
 92
        0
 66
   257
 43
1.0
 76
     1
 77
     6
 78
     2
 67
     7
 79
     5
170
     0
171
     0
290
     0
174
     0
 93
        1
 44
0.0
173
     0
291
     0
 45
0.0
1001
ACAD
1000
AcDbSavedByObjectVersion
1070
     0
  0
VISUALSTYLE
  5
1926
102
{ACAD_XDICTIONARY
360
6103
102
}
102
{ACAD_REACTORS
330
1921
102
}
330
1921
100
AcDbVisualStyle
  2
Basic
 70
     7
 71
     1
 72
     0
 73
     1
 90
        0
 40
-0.6
 41
-30.0
 62
     5
 63
     7
421
 16777215
 74
     0
 91
        4
 64
     7
 65
   257
 75
     1
175
     1
 42
1.0
 92
        8
 66
     7
 43
1.0
 76
     1
 77
     6
 78
     2
 67
     7
 79
     5
170
     0
171
     0
290
     0
174
     0
 93
        1
 44
0.0
173
     0
291
     1
 45
0.0
1001
ACAD
1000
AcDbSavedByObjectVersion
1070
     0
  0
VISUALSTYLE
  5
192D
102
{ACAD_XDICTIONARY
360
6111
102
}
102
{ACAD_REACTORS
330
1921
102
}
330
1921
100
AcDbVisualStyle
  2
Brighten
 70
    12
 71
     2
 72
     2
 73
     0
 90
        0
 40
-0.6
 41
-30.0
 62
     5
 63
     7
421
 16777215
 74
     1
 91
        4
 64
     7
 65
   257
 75
     1
175
     1
 42
1.0
 92
        8
 66
     7
 43
1.0
 76
     1
 77
     6
 78
     2
 67
     7
 79
     5
170
     0
171
     0
290
     0
174
     0
 93
        1
 44
50.0
173
     0
291
     1
 45
0.0
1001
ACAD
1000
AcDbSavedByObjectVersion
1070
     0
  0
VISUALSTYLE
  5
1931
102
{ACAD_XDICTIONARY
360
6119
102
}
102
{ACAD_REACTORS
330
1921
102
}
330
1921
100
AcDbVisualStyle
  2
ColorChange
 70
    16
 71
     2
 72
     2
 73
     3
 90
        0
 40
-0.6
 41
-30.0
 62
     5
 63
     8
421
  8421504
 74
     1
 91
        4
 64
     7
 65
   257
 75
     1
175
     1
 42
1.0
 92
        8
 66
     8
424
  8421504
 43
1.0
 76
     1
 77
     6
 78
     2
 67
     7
 79
     5
170
     0
171
     0
290
     0
174
     0
 93
        1
 44
0.0
173
     0
291
     1
 45
0.0
1001
ACAD
1000
AcDbSavedByObjectVersion
1070
     0
  0
VISUALSTYLE
  5
192A
102
{ACAD_XDICTIONARY
360
610B
102
}
102
{ACAD_REACTORS
330
1921
102
}
330
1921
100
AcDbVisualStyle
  2
Conceptual
 70
     9
 71
     3
 72
     2
 73
     0
 90
        0
 40
-0.6
 41
-30.0
 62
     5
 63
     7
421
 16777215
 74
     2
 91
        2
 64
     7
 65
   257
 75
     1
175
     1
 42
40.0
 92
        8
 66
     7
 43
1.0
 76
     1
 77
     6
 78
     2
 67
     7
 79
     3
170
     0
171
     0
290
     0
174
     0
 93
        1
 44
0.0
173
     0
291
     0
 45
0.0
1001
ACAD
1000
AcDbSavedByObjectVersion
1070
     0
  0
VISUALSTYLE
  5
192C
102
{ACAD_XDICTIONARY
360
610F
102
}
102
{ACAD_REACTORS
330
1921
102
}
330
1921
100
AcDbVisualStyle
  2
Dim
 70
    11
 71
     2
 72
     2
 73
     0
 90
        0
 40
-0.6
 41
-30.0
 62
     5
 63
     7
421
 16777215
 74
     1
 91
        4
 64
     7
 65
   257
 75
     1
175
     1
 42
1.0
 92
        8
 66
     7
 43
1.0
 76
     1
 77
     6
 78
     2
 67
     7
 79
     5
170
     0
171
     0
290
     0
174
     0
 93
        1
 44
-50.0
173
     0
291
     1
 45
0.0
1001
ACAD
1000
AcDbSavedByObjectVersion
1070
     0
  0
VISUALSTYLE
  5
1A53
102
{ACAD_XDICTIONARY
360
6120
102
}
102
{ACAD_REACTORS
330
1921
102
}
330
1921
100
AcDbVisualStyle
  2
EdgeColorOff
 70
    22
 71
     2
 72
     2
 73
     0
 90
        0
 40
-0.6
 41
-30.0
 62
     5
 63
     7
421
 16777215
 74
     1
 91
        4
 64
     7
 65
   257
 75
     1
175
     1
 42
1.0
 92
        8
 66
     7
 43
1.0
 76
     1
 77
     6
 78
     2
 67
     7
 79
     5
170
     0
171
     0
290
     0
174
     0
 93
        1
 44
0.0
173
     0
291
     1
 45
0.0
1001
ACAD
1000
AcDbSavedByObjectVersion
1070
     0
  0
VISUALSTYLE
  5
1930
102
{ACAD_XDICTIONARY
360
6117
102
}
102
{ACAD_REACTORS
330
1921
102
}
330
1921
100
AcDbVisualStyle
  2
Facepattern
 70
    15
 71
     2
 72
     2
 73
     0
 90
        0
 40
-0.6
 41
-30.0
 62
     5
 63
     7
421
 16777215
 74
     1
 91
        4
 64
     7
 65
   257
 75
     1
175
     1
 42
1.0
 92
        8
 66
     7
 43
1.0
 76
     1
 77
     6
 78
     2
 67
     7
 79
     5
170
     0
171
     0
290
     0
174
     0
 93
        1
 44
0.0
173
     0
291
     1
 45
0.0
1001
ACAD
1000
AcDbSavedByObjectVersion
1070
     0
  0
VISUALSTYLE
  5
1922
102
{ACAD_XDICTIONARY
360
60FB
102
}
102
{ACAD_REACTORS
330
1921
102
}
330
1921
100
AcDbVisualStyle
  2
Flat
 70
     0
 71
     2
 72
     1
 73
     1
 90
        2
 40
-0.6
 41
30.0
 62
     5
 63
     7
421
 16777215
 74
     0
 91
        4
 64
     7
 65
   257
 75
     1
175
     1
 42
1.0
 92
        8
 66
     7
 43
1.0
 76
     1
 77
     6
 78
     2
 67
     7
 79
     5
170
     0
171
     0
290
     0
174
     0
 93
       13
 44
0.0
173
     0
291
     1
 45
0.0
1001
ACAD
1000
AcDbSavedByObjectVersion
1070
     0
  0
VISUALSTYLE
  5
1923
102
{ACAD_XDICTIONARY
360
60FD
102
}
102
{ACAD_REACTORS
330
1921
102
}
330
1921
100
AcDbVisualStyle
  2
FlatWithEdges
 70
     1
 71
     2
 72
     1
 73
     1
 90
        2
 40
-0.6
 41
30.0
 62
     5
 63
     7
421
 16777215
 74
     1
 91
        4
 64
     7
 65
   257
 75
     1
175
     1
 42
1.0
 92
        0
 66
   257
 43
1.0
 76
     1
 77
     6
 78
     2
 67
     7
 79
     5
170
     0
171
     0
290
     0
174
     0
 93
       13
 44
0.0
173
     0
291
     1
 45
0.0
1001
ACAD
1000
AcDbSavedByObjectVersion
1070
     0
  0
VISUALSTYLE
  5
1924
102
{ACAD_XDICTIONARY
360
60FF
102
}
102
{ACAD_REACTORS
330
1921
102
}
330
1921
100
AcDbVisualStyle
  2
Gouraud
 70
     2
 71
     2
 72
     2
 73
     1
 90
        2
 40
-0.6
 41
30.0
 62
     5
 63
     7
421
 16777215
 74
     0
 91
        4
 64
     7
 65
   257
 75
     1
175
     1
 42
1.0
 92
        0
 66
     7
 43
1.0
 76
     1
 77
     6
 78
     2
 67
     7
 79
     5
170
     0
171
     0
290
     0
174
     0
 93
       13
 44
0.0
173
     0
291
     1
 45
0.0
1001
ACAD
1000
AcDbSavedByObjectVersion
1070
     0
  0
VISUALSTYLE
  5
1925
102
{ACAD_XDICTIONARY
360
6101
102
}
102
{ACAD_REACTORS
330
1921
102
}
330
1921
100
AcDbVisualStyle
  2
GouraudWithEdges
 70
     3
 71
     2
 72
     2
 73
     1
 90
        2
 40
-0.6
 41
30.0
 62
     5
 63
     7
421
 16777215
 74
     1
 91
        4
 64
     7
 65
   257
 75
     1
175
     1
 42
1.0
 92
        0
 66
   257
 43
1.0
 76
     1
 77
     6
 78
     2
 67
     7
 79
     5
170
     0
171
     0
290
     0
174
     0
 93
       13
 44
0.0
173
     0
291
     1
 45
0.0
1001
ACAD
1000
AcDbSavedByObjectVersion
1070
     0
  0
VISUALSTYLE
  5
3BF8
102
{ACAD_XDICTIONARY
360
6124
102
}
102
{ACAD_REACTORS
330
1921
102
}
330
1921
100
AcDbVisualStyle
  2
Hidden
 70
     6
 71
     1
 72
     2
 73
     2
 90
        0
 40
-0.6
 41
-30.0
 62
     5
 63
     7
421
 16777215
 74
     2
 91
        2
 64
     7
 65
   257
 75
     2
175
     1
 42
40.0
 92
        0
 66
   257
 43
1.0
 76
     1
 77
     6
 78
     2
 67
     7
 79
     3
170
     0
171
     0
290
     0
174
     0
 93
        1
 44
0.0
173
     0
291
     0
 45
0.0
1001
ACAD
1000
AcDbSavedByObjectVersion
1070
     0
  0
VISUALSTYLE
  5
1A51
102
{ACAD_XDICTIONARY
360
611C
102
}
102
{ACAD_REACTORS
330
1921
102
}
330
1921
100
AcDbVisualStyle
  2
JitterOff
 70
    20
 71
     2
 72
     2
 73
     0
 90
        0
 40
-0.6
 41
-30.0
 62
     5
 63
     7
421
 16777215
 74
     1
 91
        4
 64
     7
 65
   257
 75
     1
175
     1
 42
1.0
 92
       10
 66
     7
 43
1.0
 76
     1
 77
     6
 78
     2
 67
     7
 79
     5
170
     0
171
     0
290
     0
174
     0
 93
        1
 44
0.0
173
     0
291
     1
 45
0.0
1001
ACAD
1000
AcDbSavedByObjectVersion
1070
     0
  0
VISUALSTYLE
  5
192F
102
{ACAD_XDICTIONARY
360
6115
102
}
102
{ACAD_REACTORS
330
1921
102
}
330
1921
100
AcDbVisualStyle
  2
Linepattern
 70
    14
 71
     2
 72
     2
 73
     0
 90
        0
 40
-0.6
 41
-30.0
 62
     5
 63
     7
421
 16777215
 74
     1
 91
        4
 64
     7
 65
   257
 75
     7
175
     7
 42
1.0
 92
        8
 66
     7
 43
1.0
 76
     1
 77
     6
 78
     2
 67
     7
 79
     5
170
     0
171
     0
290
     0
174
     0
 93
        1
 44
0.0
173
     0
291
     1
 45
0.0
1001
ACAD
1000
AcDbSavedByObjectVersion
1070
     0
  0
VISUALSTYLE
  5
1A52
102
{ACAD_XDICTIONARY
360
611E
102
}
102
{ACAD_REACTORS
330
1921
102
}
330
1921
100
AcDbVisualStyle
  2
OverhangOff
 70
    21
 71
     2
 72
     2
 73
     0
 90
        0
 40
-0.6
 41
-30.0
 62
     5
 63
     7
421
 16777215
 74
     1
 91
        4
 64
     7
 65
   257
 75
     1
175
     1
 42
1.0
 92
        9
 66
     7
 43
1.0
 76
     1
 77
     6
 78
     2
 67
     7
 79
     5
170
     0
171
     0
290
     0
174
     0
 93
        1
 44
0.0
173
     0
291
     1
 45
0.0
1001
ACAD
1000
AcDbSavedByObjectVersion
1070
     0
  0
VISUALSTYLE
  5
192B
102
{ACAD_XDICTIONARY
360
610D
102
}
102
{ACAD_REACTORS
330
1921
102
}
330
1921
100
AcDbVisualStyle
  2
Realistic
 70
     8
 71
     2
 72
     2
 73
     0
 90
        0
 40
-0.6
 41
-30.0
 62
     5
 63
     7
421
 16777215
 74
     1
 91
        0
 64
     7
 65
   257
 75
     1
175
     1
 42
1.0
 92
        8
 66
     8
424
  7895160
 43
1.0
 76
     1
 77
     6
 78
     2
 67
     7
 79
     5
170
     0
171
     0
290
     0
174
     0
 93
       13
 44
0.0
173
     0
291
     0
 45
0.0
1001
ACAD
1000
AcDbSavedByObjectVersion
1070
     0
  0
VISUALSTYLE
  5
3BFD
102
{ACAD_XDICTIONARY
360
612E
102
}
102
{ACAD_REACTORS
330
1921
102
}
330
1921
100
AcDbVisualStyle
  2
Shaded
 70
    27
 71
     2
 72
     2
 73
     1
 90
        2
 40
-0.6
 41
30.0
 62
     5
 63
     7
421
 16777215
 74
     0
 91
        4
 64
     7
 65
   257
 75
     1
175
     1
 42
1.0
 92
        8
 66
   257
 43
1.0
 76
     1
 77
     6
 78
     2
 67
     8
425
  7895160
 79
     3
170
     0
171
     0
290
     0
174
     0
 93
        5
 44
0.0
173
     0
291
     0
 45
0.0
1001
ACAD
1000
AcDbSavedByObjectVersion
1070
     0
  0
VISUALSTYLE
  5
3BFC
102
{ACAD_XDICTIONARY
360
612C
102
}
102
{ACAD_REACTORS
330
1921
102
}
330
1921
100
AcDbVisualStyle
  2
Shaded with edges
 70
    26
 71
     2
 72
     2
 73
     1
 90
        2
 40
-0.6
 41
30.0
 62
     5
 63
     7
421
 16777215
 74
     1
 91
       10
 64
     7
 65
   257
 75
     2
175
     1
 42
1.0
 92
        8
 66
   257
 43
1.0
 76
     1
 77
     6
 78
     2
 67
     7
 79
     3
170
     0
171
     0
290
     0
174
     0
 93
        5
 44
0.0
173
     0
291
     0
 45
0.0
1001
ACAD
1000
AcDbSavedByObjectVersion
1070
     0
  0
VISUALSTYLE
  5
3BF9
102
{ACAD_XDICTIONARY
360
6126
102
}
102
{ACAD_REACTORS
330
1921
102
}
330
1921
100
AcDbVisualStyle
  2
Shades of Gray
 70
    23
 71
     2
 72
     2
 73
     3
 90
        0
 40
-0.6
 41
-30.0
 62
     5
 63
     7
421
 16777215
 74
     2
 91
        2
 64
     7
 65
     7
 75
     1
175
     1
 42
40.0
 92
        8
 66
     7
 43
1.0
 76
     1
 77
     6
 78
     2
 67
     7
 79
     3
170
     0
171
     0
290
     0
174
     0
 93
        1
 44
0.0
173
     0
291
     0
 45
0.0
1001
ACAD
1000
AcDbSavedByObjectVersion
1070
     0
  0
VISUALSTYLE
  5
3BFA
102
{ACAD_XDICTIONARY
360
6128
102
}
102
{ACAD_REACTORS
330
1921
102
}
330
1921
100
AcDbVisualStyle
  2
Sketchy
 70
    24
 71
     1
 72
     2
 73
     2
 90
        0
 40
-0.6
 41
-30.0
 62
     5
 63
     7
421
 16777215
 74
     2
 91
        2
 64
     7
 65
     7
 75
     1
175
     1
 42
40.0
 92
       11
 66
     7
 43
1.0
 76
     1
 77
     6
 78
     2
 67
     7
 79
     6
170
     0
171
     0
290
     0
174
     0
 93
        1
 44
0.0
173
     0
291
     0
 45
0.0
1001
ACAD
1000
AcDbSavedByObjectVersion
1070
     0
  0
VISUALSTYLE
  5
192E
102
{ACAD_XDICTIONARY
360
6113
102
}
102
{ACAD_REACTORS
330
1921
102
}
330
1921
100
AcDbVisualStyle
  2
Thicken
 70
    13
 71
     2
 72
     2
 73
     0
 90
        0
 40
-0.6
 41
-30.0
 62
     5
 63
     7
421
 16777215
 74
     1
 91
        4
 64
     7
 65
   257
 75
     1
175
     1
 42
1.0
 92
       12
 66
     7
 43
1.0
 76
     1
 77
     6
 78
     2
 67
     7
 79
     5
170
     0
171
     0
290
     0
174
     0
 93
        1
 44
0.0
173
     0
291
     1
 45
0.0
1001
ACAD
1000
AcDbSavedByObjectVersion
1070
     0
  0
VISUALSTYLE
  5
3BF7
102
{ACAD_XDICTIONARY
360
6122
102
}
102
{ACAD_REACTORS
330
1921
102
}
330
1921
100
AcDbVisualStyle
  2
Wireframe
 70
     5
 71
     0
 72
     2
 73
     0
 90
        0
 40
-0.6
 41
-30.0
 62
     5
 63
     7
421
 16777215
 74
     1
 91
        4
 64
     7
 65
   257
 75
     1
175
     1
 42
1.0
 92
        0
 66
   257
 43
1.0
 76
     1
 77
     6
 78
     2
 67
     7
 79
     3
170
     0
171
     0
290
     0
174
     0
 93
        1
 44
0.0
173
     0
291
     0
 45
0.0
1001
ACAD
1000
AcDbSavedByObjectVersion
1070
     0
  0
VISUALSTYLE
  5
3BFB
102
{ACAD_XDICTIONARY
360
612A
102
}
102
{ACAD_REACTORS
330
1921
102
}
330
1921
100
AcDbVisualStyle
  2
X-Ray
 70
    25
 71
     2
 72
     2
 73
     1
 90
        1
 40
0.5
 41
-30.0
 62
     5
 63
     7
421
 16777215
 74
     1
 91
        0
 64
     7
 65
   257
 75
     1
175
     1
 42
1.0
 92
        8
 66
     7
 43
1.0
 76
     1
 77
     6
 78
     2
 67
     7
 79
     3
170
     0
171
     0
290
     0
174
     0
 93
       13
 44
0.0
173
     0
291
     0
 45
0.0
1001
ACAD
1000
AcDbSavedByObjectVersion
1070
     0
  0
DICTIONARYVAR
  5
1C6B
102
{ACAD_REACTORS
330
5E
102
}
330
5E
100
DictionaryVariables
280
     0
  1
1:1
  0
DICTIONARYVAR
  5
1C6A
102
{ACAD_REACTORS
330
5E
102
}
330
5E
100
DictionaryVariables
280
     0
  1
STANDARD
  0
DICTIONARYVAR
  5
19B4
102
{ACAD_REACTORS
330
5E
102
}
330
5E
100
DictionaryVariables
280
     0
  1
STANDARD
  0
DICTIONARYVAR
  5
5F
102
{ACAD_REACTORS
330
5E
102
}
330
5E
100
DictionaryVariables
280
     0
  1
2
  0
DICTIONARYVAR
  5
63
102
{ACAD_REACTORS
330
5E
102
}
330
5E
100
DictionaryVariables
280
     0
  1
1
  0
DICTIONARYVAR
  5
17D7
102
{ACAD_REACTORS
330
5E
102
}
330
5E
100
DictionaryVariables
280
     0
  1

  0
XRECORD
  5
1806
102
{ACAD_REACTORS
330
1805
102
}
330
1805
100
AcDbXrecord
280
     1
330
0
  0
VLO-VL
  5
1A73
102
{ACAD_REACTORS
330
1A72
102
}
330
1A72
100
vlo_VL
 90
   -64512
 91
       12
 92
        1
 40
2.5
300
(&VLO-R . 0)
  0
DICTIONARY
  5
1BC0
330
22
100
AcDbDictionary
280
     1
281
     1
  3
ADSK_XREC_LAYOUTTHUMBNAIL
360
1BC1
  0
DICTIONARY
  5
633D
330
15D0
100
AcDbDictionary
280
     1
281
     1
  3
ACAD_XREC_ROUNDTRIP
360
633E
  0
DICTIONARY
  5
633F
330
15D3
100
AcDbDictionary
280
     1
281
     1
  3
ACAD_XREC_ROUNDTRIP
360
6340
  0
DICTIONARY
  5
633B
330
559
100
AcDbDictionary
280
     1
281
     1
  3
ACAD_XREC_ROUNDTRIP
360
633C
  0
DICTIONARY
  5
1C38
330
1933
100
AcDbDictionary
280
     1
281
     1
  3
ACAD_ROUNDTRIP_2008_TABLESTYLE_CELLSTYLEMAP
360
60F2
  3
ACAD_XREC_ROUNDTRIP
360
6341
  0
DICTIONARY
  5
6105
330
1927
100
AcDbDictionary
280
     1
281
     1
  3
ACAD_XREC_ROUNDTRIP
360
6106
  0
DICTIONARY
  5
6109
330
1929
100
AcDbDictionary
280
     1
281
     1
  3
ACAD_XREC_ROUNDTRIP
360
610A
  0
DICTIONARY
  5
6107
330
1928
100
AcDbDictionary
280
     1
281
     1
  3
ACAD_XREC_ROUNDTRIP
360
6108
  0
DICTIONARY
  5
6103
330
1926
100
AcDbDictionary
280
     1
281
     1
  3
ACAD_XREC_ROUNDTRIP
360
6104
  0
DICTIONARY
  5
6111
330
192D
100
AcDbDictionary
280
     1
281
     1
  3
ACAD_XREC_ROUNDTRIP
360
6112
  0
DICTIONARY
  5
6119
330
1931
100
AcDbDictionary
280
     1
281
     1
  3
ACAD_XREC_ROUNDTRIP
360
611A
  0
DICTIONARY
  5
610B
330
192A
100
AcDbDictionary
280
     1
281
     1
  3
ACAD_XREC_ROUNDTRIP
360
610C
  0
DICTIONARY
  5
610F
330
192C
100
AcDbDictionary
280
     1
281
     1
  3
ACAD_XREC_ROUNDTRIP
360
6110
  0
DICTIONARY
  5
6120
330
1A53
100
AcDbDictionary
280
     1
281
     1
  3
ACAD_XREC_ROUNDTRIP
360
6121
  0
DICTIONARY
  5
6117
330
1930
100
AcDbDictionary
280
     1
281
     1
  3
ACAD_XREC_ROUNDTRIP
360
6118
  0
DICTIONARY
  5
60FB
330
1922
100
AcDbDictionary
280
     1
281
     1
  3
ACAD_XREC_ROUNDTRIP
360
60FC
  0
DICTIONARY
  5
60FD
330
1923
100
AcDbDictionary
280
     1
281
     1
  3
ACAD_XREC_ROUNDTRIP
360
60FE
  0
DICTIONARY
  5
60FF
330
1924
100
AcDbDictionary
280
     1
281
     1
  3
ACAD_XREC_ROUNDTRIP
360
6100
  0
DICTIONARY
  5
6101
330
1925
100
AcDbDictionary
280
     1
281
     1
  3
ACAD_XREC_ROUNDTRIP
360
6102
  0
DICTIONARY
  5
6124
330
3BF8
100
AcDbDictionary
280
     1
281
     1
  3
ACAD_XREC_ROUNDTRIP
360
6125
  0
DICTIONARY
  5
611C
330
1A51
100
AcDbDictionary
280
     1
281
     1
  3
ACAD_XREC_ROUNDTRIP
360
611D
  0
DICTIONARY
  5
6115
330
192F
100
AcDbDictionary
280
     1
281
     1
  3
ACAD_XREC_ROUNDTRIP
360
6116
  0
DICTIONARY
  5
611E
330
1A52
100
AcDbDictionary
280
     1
281
     1
  3
ACAD_XREC_ROUNDTRIP
360
611F
  0
DICTIONARY
  5
610D
330
192B
100
AcDbDictionary
280
     1
281
     1
  3
ACAD_XREC_ROUNDTRIP
360
610E
  0
DICTIONARY
  5
612E
330
3BFD
100
AcDbDictionary
280
     1
281
     1
  3
ACAD_XREC_ROUNDTRIP
360
612F
  0
DICTIONARY
  5
612C
330
3BFC
100
AcDbDictionary
280
     1
281
     1
  3
ACAD_XREC_ROUNDTRIP
360
612D
  0
DICTIONARY
  5
6126
330
3BF9
100
AcDbDictionary
280
     1
281
     1
  3
ACAD_XREC_ROUNDTRIP
360
6127
  0
DICTIONARY
  5
6128
330
3BFA
100
AcDbDictionary
280
     1
281
     1
  3
ACAD_XREC_ROUNDTRIP
360
6129
  0
DICTIONARY
  5
6113
330
192E
100
AcDbDictionary
280
     1
281
     1
  3
ACAD_XREC_ROUNDTRIP
360
6114
  0
DICTIONARY
  5
6122
330
3BF7
100
AcDbDictionary
280
     1
281
     1
  3
ACAD_XREC_ROUNDTRIP
360
6123
  0
DICTIONARY
  5
612A
330
3BFB
100
AcDbDictionary
280
     1
281
     1
  3
ACAD_XREC_ROUNDTRIP
360
612B
  0
XRECORD
  5
1BC1
102
{ACAD_REACTORS
330
1BC0
102
}
330
1BC0
100
AcDbXrecord
280
     1
310
280000000001000078000000010008000000000000780000000000000000000000010000000000000000000000000000FFFFFF000000000000000000000000000000000000000000000000000000000000000000330000006600000099000000CC000000FF00000000330000333300006633000099330000CC330000FF3300
310
0000660000336600006666000099660000CC660000FF66000000990000339900006699000099990000CC990000FF99000000CC000033CC000066CC000099CC0000CCCC0000FFCC000000FF000033FF000066FF000099FF0000CCFF0000FFFF000000003300330033006600330099003300CC003300FF003300003333003333
310
33006633330099333300CC333300FF33330000663300336633006666330099663300CC663300FF66330000993300339933006699330099993300CC993300FF99330000CC330033CC330066CC330099CC3300CCCC3300FFCC330000FF330033FF330066FF330099FF3300CCFF3300FFFF330000006600330066006600660099
310
006600CC006600FF00660000336600333366006633660099336600CC336600FF33660000666600336666006666660099666600CC666600FF66660000996600339966006699660099996600CC996600FF99660000CC660033CC660066CC660099CC6600CCCC6600FFCC660000FF660033FF660066FF660099FF6600CCFF6600
310
FFFF660000009900330099006600990099009900CC009900FF00990000339900333399006633990099339900CC339900FF33990000669900336699006666990099669900CC669900FF66990000999900339999006699990099999900CC999900FF99990000CC990033CC990066CC990099CC9900CCCC9900FFCC990000FF99
310
0033FF990066FF990099FF9900CCFF9900FFFF99000000CC003300CC006600CC009900CC00CC00CC00FF00CC000033CC003333CC006633CC009933CC00CC33CC00FF33CC000066CC003366CC006666CC009966CC00CC66CC00FF66CC000099CC003399CC006699CC009999CC00CC99CC00FF99CC0000CCCC0033CCCC0066CC
310
CC0099CCCC00CCCCCC00FFCCCC0000FFCC0033FFCC0066FFCC0099FFCC00CCFFCC00FFFFCC000000FF003300FF006600FF009900FF00CC00FF00FF00FF000033FF003333FF006633FF009933FF00CC33FF00FF33FF000066FF003366FF006666FF009966FF00CC66FF00FF66FF000099FF003399FF006699FF009999FF00CC
310
99FF00FF99FF0000CCFF0033CCFF0066CCFF0099CCFF00CCCCFF00FFCCFF0000FFFF0033FFFF0066FFFF0099FFFF00CCFFFF00FFFFFF00000000000D0D0D001A1A1A00282828003535350043434300505050005D5D5D006B6B6B00787878008686860093939300A1A1A100AEAEAE00BBBBBB00C9C9C900D6D6D600E4E4E400
310
F1F1F100FFFFFF000000000000000000000000000000000000000000000000000000000000000000000000000000000000000000000000000000000000000000000000000000000000000000000000000000000000000000000000F5F5F5F5F5F5F5F5F5F5F5F5F5F5F5F5F5F5F5F5F5F5F5F5F5F5F5F5F5F5F5F5F5F5F5F5
310
F5F5F5F5F5F5F5F5F5F5F5F5F5F5F5F5F5F5F5F5F5F5F5F5F5F5F5F5F5F5F5F5F5F5F5F5F5F5F5F5F5F5F5F5F5F5F5F5F5F5F5F5F5F5F5F5F5F5F5F5F5F5F5F5F5F5F5F5F5F5F5F5F5F5F5F5F5F5F5F5F5F5F5F5F5F5F5F5F5F5F5F5F5F5F5F5F5F5F5F5F5F5F5F5F5F5F5F5F5F5F5F5F5F5F5F5F5F5F5F5F5F5F5F5F5F5F5
310
F5F5F5F5F5F5F50000000000000000000000000000000000000000000000000000000000000000000000000000000000000000000000000000000000000000000000000000000000000000000000000000000000000000000000000000F5000000000000000000000000000000000000000000000000000000000000000000
310
00000000000000000000000000000000000000000000000000000000000000000000000000000000000000000000000000000000000000000000000000000000000000000000000000000000000000000000000000000000000000000000000000000000000000000000000000000000000000000000000000000000000000
310
0000000000000000F50000000000000000000000000000000000000000000000000000000000000000000000000000000000000000000000000000000000000000000000000000000000000000000000000000000000000000000000000000F500282828282828282828282828282828282828282828282828282828282828
310
282828282828282828282828282828282828282828282828282828282828282828282828282828282828282828282828282828282828282828282828282828282828282828F52828282828F52828282828F52828282828F52828282828282828282828282828282828282828282828F5282828282828282828282828282828
310
28282828282828282800F50000000000000000000000000000000000000000000000000000000000000000000000000000000000000000000000000000000000000000000000000000000000000000000000000000000000000000000000000000F50028000000000000000000000000000000000000000000000000000000
310
00000000000000000000000000000000000000000000000000000000000000000000000000000000000000000000000000000000000000000000000000000000002D2D2D2D2D00F500000000002D2D2D2D2D00ECECECECEC00F50000000000000000000000000000000000000000000000F500000000000000000000000000
310
000000000000000000002800F50000000000000000000000000000000000000000000000000000000000000000000000000000000000000000000000000000000000000000000000000000000000000000000000000000000000000000000000000000F5002800000000000000000000000000000000000000000000000000
310
00002D2D2D000000000000000000000000000000000000000000000000000000000000000000000000000000000000000000000000000000000000000000000000000028F5F5F5F5F5F5F5F5F5F5F5F5F5F5F5F5F5F5F5F5F5F5F5F500000000000000000000000000000000000000000000002D2D2D2D2D2D2D2D2D2D2D2D
310
2D2D2D2D2D2D2D2D2D2D2D002800F50000000000000000000000000000000000000000000000000000000000000000000000000000000000000000000000000000000000000000000000000000000000000000000000000000000000000000000000000000F500280000000000000000000000000000000000000000000000
310
2D2D2D2D2D2D2D2D000000000000000000000000000000000000000000000000000000000000000000000000000000000000000000000000000000000000000000000000002D2D2D2D2D00F5ECECECEC002D2D2D2D2D00F5ECECECEC00F500000000000000002D2D2D2D2D000000000000000000002D2D2D2D2D2D2D2D2D2D
310
2D2D2D2D2D2D2D2D2D2D2D2D2D002800F50000000000000000000000000000000000000000000000000000000000000000000000000000000000000000000000000000000000000000000000000000000000000000000000000000000000000000000000000000F50028000000000000000000000000000000000000002D2D
310
2D2D2D2D00002D2D2D2D0000000000000000000000000000000000000000000000000000000000000000000000000000000000000000000000000000000000000000000000000028F5F5F5F5F5F5F5F5F5F5F5F5F5F5F5F5F5F5F5F5F5F5F5F500000000000000002D2D2D2D2D00000000000000000000F500000000000000
310
000000000000000000000000000000002800F50000000000000000000000000000000000000000000000000000000000000000000000000000000000000000000000000000000000000000000000000000000000000000000000000000000000000000000000000000F50028000000000000000000000000000000002D2D2D
310
2D2D002D2D2D2D2D2D002D2D000000000000000000000000000000000000000000000000000000000000000000000000000000000000000000000000000000000000000000000000002D2D2D2D2D00F5ECECECEC002D2D2D2D2D00F50000000000F50000000000000000000000000000000000000000000000F5000000002D
310
2D00000000000000000000002D00000000002800F50000000000000000000000000000000000000000000000000000000000000000000000000000000000000000000000000000000000000000000000000000000000000000000000000000000000000000000000000000F500280000000000000000002D2D002D2D2D2D2D
310
2D2D00002D2D002D2D2D2D2D2D2D0000000000000000000000000000000000000000000000000000000000000000000000000000000000000000000000000000000000000000000000000028F5F5F5F5F5F5F5F5F5F5F5F5F5F5F5F5F5F5F5F5F5F5F5F50000000000000000000000000000000000000000000000F5F52D2D
310
2D2D2D2D2D2DF5F5F52D2D2D2D2D2D2D2D2DF5F5F500F50000000000000000000000000000000000000000000000000000000000000000000000000000000000000000000000000000000000000000000000000000000000000000000000000000000000000000000000000000F5002800000000002D2D2D2D2D2D2D2D2D2D
310
00002D0000002D2D0000002D2D002D2D000000000000000000000000000000000000000000000000000000000000000000000000000000000000000000000000000000000000000000000000002D2D2D2D2D00F5ECECEC00002D2D2D2D2D00F5ECECECEC00F50000000000000000000000000000000000000000000000F52D
310
2D000000000000000000F50000000000000000002D2D2800F50000000000000000000000000000000000000000000000000000000000000000000000000000000000000000000000000000000000000000000000000000000000000000000000000000000000000000000000000000F500280000002D2D2D2D2D2D002D2D2D
310
0000002D2D0000002D000000002D00002D2D0000000000000000000000000000000000000000000000000000000000000000000000000000000000000000000000000000000000000000000000000028F5F5F5F5F5F5F5F5F5F5F5F5F5F5F5F5F5F5F5F5F5F5F5F5F5F5F5F5F5F5F5F5F5F5F5F5F5F5F5F5F5F5F5F5F5F5F5
310
F52D2DF5F5F5F5F5F5F52D2D2D2DF5F5F52D2D2DF5F52D2DF500F50000000000000000000000000000000000000000000000000000000000000000000000000000000000000000000000000000000000000000000000000000000000000000000000000000000000000000000000000000F50028002D2D2D2D2D2D2D2D2D2D
310
2D000000002D0000002D2D0000002D2D00002D2D000000000000000000000000000000000000000000000000000000000000000000000000000000000000000000000000000000000000000000000000002D2D2D2D2D2D2D2D2D2D2D2D2D00F52D2D2D2D002D2D2D00F500002D2D2D2D2D2D2D2D2D2D2D2D2D2D2D2D2D0000
310
0000F52D2DF50000F50000F52D2D2D2D0000F52D2D2D00F52D2D2800F50000000000000000000000000000000000000000000000000000000000000000000000000000000000000000000000000000000000000000000000000000000000000000000000000000000000000000000000000000F50028002D2D002D2D2D2D2D
310
2D2D2D2D2D2D2D2D2D2D2D2D2D2D00002D00002D2D000000000000000000000000000000000000000000000000000000000000000000000000000000000000000000000000000000000000000000000000000028F5F5F5F5F5F5F5F5F5F5F5F5F5F5F5F5F5F5F5F5F5F5F5F500002D2D2D2D2D2D2D2D2D2D2D2D2D2D2D2D2D
310
00000000F50000F50000F50000F5000000000000F500000000F500002800F50000000000000000000000000000000000000000000000000000000000000000000000000000000000000000000000000000000000000000000000000000000000000000000000000000000000000000000000000000F50028002D0000002D2D
310
0000002D2D0000002D2D002D2D2D2D2D2D2D2D2D2D00000000000000000000000000000000000000000000000000000000000000000000000000000000000000000000000000000000000000000000000000000000280000F50000F500000000000000F50000000000F5000000F500002D2D2D2D2D2D2D2D2D2D2D2D2D2D2D
310
2D2D00000000F52D2D2D2D2D2D2D2DF52D2D2D2D2DF5F52D2D2DF52D2D2DF500F50000000000000000000000000000000000000000000000000000000000000000000000000000000000000000000000000000000000000000000000000000000000000000000000000000000000000000000000000000F50028002D000000
310
2D2D0000002D000000002D000000002D0000002D2D00000000000000000000000000000000000000000000000000000000000000000000000000000000000000000000000000000000000000000000000000000000000028F5F5F5F5F5F5F5F5F5F5F5F5F5F5F5F5F5F5F5F5F5F5F5F5000000000000002D2D2D2D2D2D2D00
310
0000000000000000F50000000000000000F5000000000000F500000000F500002800F50000000000000000000000000000000000000000000000000000000000000000000000000000000000000000000000000000000000000000000000000000000000000000000000000000000000000000000000000000F50028002D00
310
002D2D0000002D2D0000002D2D0000002D2D0000002D2D2D0000000000000000000000000000000000000000000000000000000000000000000000000000000000000000000000000000000000000000000000000000000000280000F50000F500000000000000F50000000000F5000000F5000000000000002D2D2D2D2D2D
310
2D000000000000000000F5F5F5F5F5F5F5F5F5F5F5F5F5F5F5F5F5F5F5F5F5F5F5F5F500F50000000000000000000000000000000000000000000000000000000000000000000000000000000000000000000000000000000000000000000000000000000000000000000000000000000000000000000000000000F5002800
310
2D2D2D2D2D2D00002D000000002D000000002D000000002D2D2D000000000000000000000000000000000000000000000000000000000000000000000000000000000000000000000000000000000000000000000000000000000028F5F5F5F5F5F5F5F5F5F5F5F5F5F5F5F5F5F5F5F5F5F5F5F5000000000000002D2D2D2D
310
2D2D2D000000000000000000F500002D2D2D2D2D2D2D2D2D2D2D2D2D2D2D2D00000000002800F50000000000000000000000000000000000000000000000000000000000000000000000000000000000000000000000000000000000000000000000000000000000000000000000000000000000000000000000000000F500
310
28002D2D2D2D2D2D2D2D2D2D2D2D2D2D2D2D2D2D2D2D00002D2D002D2D00000000000000000000000000000000000000000000000000000000000000000000000000000000000000000000000000000000000000000000000000000000280000F50000F500000000000000F50000000000F5000000F5000000000000000000
310
0000000000000000000000000000F500002D2D2D2D2D2D2D2D2D2D2D2D2D2D2D2D00000000002800F50000000000000000000000000000000000000000000000000000000000000000000000000000000000000000000000000000000000000000000000000000000000000000000000000000000000000000000000000000
310
F50028000000002D000000002D0000002D2D002D2D2D2D2D2D2D2D2D2D2D2D0000000000000000000000000000000000000000000000000000000000000000000000000000000000000000000000000000000000000000000000000000000028F5F5F5F5F5F5F5F5F5F5F5F5F5F5F5F5F5F5F5F5F5F5F5F500000000000000
310
00000000000000000000000000000000F500002D2D2D2D2D2D2D2D2D2D2D2D2D2D2D2D00000000002800F5000000000000000000000000000000000000000000000000000000000000000000000000000000000000000000000000000000000000000000000000000000000000000000000000000000000000000000000000
310
0000F50028000000002D0000002D2D0000002D2D0000002D2D0000002D00002D2D00000000000000000000000000000000000000000000000000000000000000000000000000000000000000000000000000000000000000000000000000000000280000F50000F500000000000000F50000000000F5000000F50000000000
310
000000000000000000000000000000000000F500000000000000000000000000000000000000000000002800F500000000000000000000000000000000000000000000000000000000000000000000000000000000000000000000000000000000000000000000000000000000000000000000000000000000000000000000
310
00000000F50028000000002D0000002D0000002D2D000000002D0000002D2D00002D2D00000000000000000000000000000000000000000000000000000000000000000000000000000000000000000000000000000000000000000000000000000000282828F52828F528282828282828F52828282828F5282828F5282828
310
2828282828282828282828282828282828282828F528282828282828282828282828282828282828282828282800F50000000000000000000000000000000000000000000000000000000000000000000000000000000000000000000000000000000000000000000000000000000000000000000000000000000000000000
310
000000000000F50028000000002D2D002D2D0000002D2D0000002D2D0000002D002D2D2D00000000000000000000000000000000000000000000000000000000000000000000000000000000000000000000000000000000000000000000000000000000000000000000000000000000000000000000000000000000000000
310
000000000000000000000000000000000000000000000000000000000000000000000000000000000000000000002800F5000000000000000000000000000000000000000000000000000000000000000000000000000000000000000000000000000000000000000000000000000000000000000000000000000000000000
310
0000000000000000F50028000000002D2D2D2D2D2D2D2D2D2D2D2D2D2D2D00002D2D2D2D00000000000000000000000000000000000000000000000000000000000000000000000000000000000000000000000000000000000000000000000000000000000000000000000000000000000000000000000000000000000000
310
0000000000000000000000000000000000000000000000000000000000000000000000000000000000000000000000002800F500000000000000000000000000000000000000000000000000000000000000000000000000000000000000000000000000000000000000000000000000000000000000000000000000000000
310
00000000000000000000F50028000000000000002D2D0000002D002D2D2D2D2D2D2D2D2D00000000000000000000000000000000000000000000000000000000000000000000000000000000000000000000000000000000000000000000000000000000000000000000000000000000000000000000000000000000000000
310
00000000000000000000000000000000000000000000000000000000000000000000000000000000000000000000000000002800F50000000000000000000000000000000000000000000000000000000000000000000000000000000000000000000000000000000000000000000000000000000000000000000000000000
310
000000000000000000000000F50028000000000000002D0000002D2D0000002D2D0000002D2D000000000000000000000000000000000000000000000000000000000000000000000000000000000000000000000000000000000000000000000000000000000000002D002D002D0000002D00000000000000000000000000
310
000000000000000000000000000000000000000000000000000000000000000000000000000000000000000000000000000000002800F5000000000000000000000000000000000000000000000000000000000000000000000000000000000000000000000000000000000000000000000000000000000000000000000000
310
0000000000000000000000000000F50028000000000000002D0000002D2D0000002D000000002D2D2D0000000000000000000000000000000000000000000000000000000000000000000000000000000000000000000000000000000000000000000000000000002D2D2D2D2D2D002D2D2D2D2D2D2D2D2D2D000000000000
310
0000000000000000000000000000000000000000000000000000000000000000000000000000000000000000000000000000000000002800F500000000000000000000000000000000000000000000000000000000000000000000000000000000000000000000000000000000000000000000000000000000000000000000
310
00000000000000000000000000000000F50028000000000000002D00002D2D0000002D2D0000002D2D002D000000000000000000000000000000000000000000000000000000000000000000000000000000000000000000000000000000000000000000000000000000002D2D2D002DDC2D0000002D2D2D2D000000000000
310
00000000000000000000000000000000000000000000000000000000000000000000000000000000000000000000000000000000000000002800F50000000000000000000000000000000000000000000000000000000000000000000000000000000000000000000000000000000000000000000000000000000000000000
310
000000000000000000000000000000000000F50028000000000000002D2D2D2D2D2D00002D000000002D00002D0000000000000000000000000000000000000000000000000000000000000000000000000000000000000000000000000000000000000000000000000000000000002DDC2D2D2D2D2D2D2D00000000000000
310
000000000000000000000000000000000000000000000000000000000000000000000000000000000000000000000000000000000000000000002800F5000000000000000000000000000000000000000000000000000000000000000000000000000000000000000000000000000000000000000000000000000000000000
310
0000000000000000000000000000000000000000F50028000000000000002D2D2D2D2D2D2D2D2D2D2D2D2D2D2D2D2D0000000000000000000000000000000000000000000000000000000000000000000000000000000000000000000000000000000000000000000000000000000000002DF52DF52D2D2D2D2D2D2D2D2D00
310
0000000000000000000000000000000000000000000000000000000000000000000000000000000000000000000000000000000000000000000000002800F500000000000000000000000000000000000000000000000000000000000000000000000000000000000000000000000000000000000000000000000000000000
310
00000000000000000000000000000000000000000000F50028000000000000000000002D000000002D2D00002D2D2D2D2D00000000000000000000000000000000000000000000000000000000000000000000000000000000000000000000000000000000000000000000000000000000000028F52DF52D2D00002D2D2D2D
310
2D000000000000000000000000000000000000000000000000000000000000000000000000000000000000000000000000000000000000000000000000002800F50000000000000000000000000000000000000000000000000000000000000000000000000000000000000000000000000000000000000000000000000000
310
000000000000000000000000000000000000000000000000F50028000000000000000000002D0000002D2D2D00002D2D2D2D0000000000000000000000000000000000000000000000000000000000000000000000000000000000000000000000000000000000000000000000000000002D2D2D2D2D282D2D2D2D28282D2D
310
2D2D2D000000000000000000000000000000000000000000000000000000000000000000000000000000000000000000000000000000000000000000000000002800F5000000000000000000000000000000000000000000000000000000000000000000000000000000000000000000000000000000000000000000000000
310
0000000000000000000000000000000000000000000000000000F50028000000000000000000002D0000002D2D2D2D2D2D2D2D0000000000000000000000000000000000000000000000000000000000000000000000000000000000000000000000000000000000000000000000000000002D2D2D2DBEBEBEBE2D2DBEBEBE
310
BE2D2D2D2D2D0000000000000000000000000000000000000000000000000000000000000000000000000000000000000000000000000000000000000000000000002800F500000000000000000000000000000000000000000000000000000000000000000000000000000000000000000000000000000000000000000000
310
00000000000000000000000000000000000000000000000000000000F50028000000000000000000002D2D002D2D2D2D2D2D2D0000000000000000000000000000000000000000000000000000000000000000000000000000000000000000000000000000000000000000000000000000000000002D2D2D002800282D2D28
310
28282D2D2D2D2D2D0000000000000000000000000000000000000000000000000000000000000000000000000000000000000000000000000000000000000000000000002800F50000000000000000000000000000000000000000000000000000000000000000000000000000000000000000000000000000000000000000
310
000000000000000000000000000000000000000000000000000000000000F50028000000000000000000002D2D2D2D2D2D2D0000000000000000000000000000000000000000000000000000000000000000000000000000000000000000000000000000000000000000000000000000000000000000002D2D2D2D2D282D2D
310
2D2D28282D2D2D2D2D000000000000000000000000000000000000000000000000000000000000000000000000000000000000000000000000000000000000000000000000002800F5000000000000000000000000000000000000000000000000000000000000000000000000000000000000000000000000000000000000
310
0000000000000000000000000000000000000000000000000000000000000000F5002800000000000000000000000000000000000000000000000000000000000000000000000000000000000000000000000000000000000000000000000000000000000000000000000000000000000000000000000000000000000028F5
310
2D2D2D0000002D2D2D2D2D000000000000000000000000000000000000000000000000000000000000000000000000000000000000000000000000000000000000000000000000002800F500000000000000000000000000000000000000000000000000000000000000000000000000000000000000000000000000000000
310
00000000000000000000000000000000000000000000000000000000000000000000F500280000000000000000000000000000000000000000000000000000000000BE280000000000000000BE28000000000000000000BE28000000000000000000000000BE28000000000028BE0000000000000000000000000000000000
310
DCF5F52D282D2D2D2D2D000000000000000000000000000000000000000000000000000000000000000000000000000000000000000000000000000000000000000000000000000000002800F50000000000000000000000000000000000000000000000000000000000000000000000000000000000000000000000000000
310
000000000000000000000000000000000000000000000000000000000000000000000000F500280000000000000000000000000000000000000000000000000000000028BE282828282828282828BE28282828282828282828BE28282828282828282828282828BE28282828282828BE280000000000000000000000000000
310
000000E22DE2282D2D2DE22D000000000000000000000000000000000000000000000000000000000000000000000000000000000000000000000000000000000000000000000000000000002800F5000000000000000000000000000000000000000000000000000000000000000000000000000000000000000000000000
310
0000000000000000000000000000000000000000000000000000000000000000000000000000F500280000000000000000000000000000000000000000000000000000000028282828282828282828282828282828282828282828282828282828282828282828282828282828282828282828000000000000000000000000
310
0000000000E22DE2DC0000000000000000000000000000000000000000000000000000000000000000000000000000000000000000000000000000000000000000000000000000000000000000002800F500000000000000000000000000000000000000000000000000000000000000000000000000000000000000000000
310
00000000000000000000000000000000000000000000000000000000000000000000000000000000F50028000000000000000000000000000000000000000000000000000000000000000000000000000000000000000000000000000000000000000000000000000000000000000000000000000000000000000000000000
310
000000000000002D2D2D000000000000000000000000000000000000000000000000000000000000000000000000000000000000000000000000000000000000000000000000000000000000000000002800F50000000000000000000000000000000000000000000000000000000000000000000000000000000000000000
310
000000000000000000000000000000000000000000000000000000000000000000000000000000000000F5002800000000000000000000000000000000000000000000000000000000000000000000000000000000000000000000000000000000000000000000000000000000000000000000000000000000000000000000
310
000000000000000000E22D2D000000000000000000000000000000000000000000000000000000000000000000000000000000000000000000000000000000000000000000000000000000000000000000002800F5000000000000000000000000000000000000000000000000000000000000000000000000000000000000
310
0000000000000000000000000000000000000000000000000000000000000000000000000000000000000000F500280000000000000000000000000000000000000000000000000000000000000000000000000000000000000000000000000000000000000000000000000000000000000000000000000000000000000000
310
0000000000000000000000E2E2E2000000000000000000000000000000000000000000000000000000000000000000000000000000000000000000000000000000000000000000000000000000000000000000002800F500000000000000000000000000000000000000000000000000000000000000000000000000000000
310
00000000000000000000000000000000000000000000000000000000000000000000000000000000000000000000F50028000000000000000000000000000000000000000000000000000000000000000000000000000000000000000000000000000000000000000000000000000000000000000000000000000000000000
310
00000000000000000000000000000000000000000000000000000000000000000000000000000000000000000000000000000000000000000000000000000000000000000000000000000000000000000000000000002800F50000000000000000000000000000000000000000000000000000000000000000000000000000
310
000000000000000000000000000000000000000000000000000000000000000000000000000000000000000000000000F5002800000000000000000000000000000000000000000000000000000000000000000000000000000000000000000000000000000000000000000000000000000000000000000000000000000000
310
000000000000000000000000000000C3C3C3000000000000000000000000000000000000000000000000000000000000000000000000000000000000000000000000000000000000000000000000000000000000000000002800F5000000000000000000000000000000000000000000000000000000000000000000000000
310
0000000000000000000000000000000000000000000000000000000000000000000000000000000000000000000000000000F500280000000000000000000000000000000000000000000000000000000000000000000000000000000000000000000000000000000000000000000000000000000000000000000000000000
310
00000000000000000000000000000000002DC3C3000000000000000000000000000000000000000000000000000000000000000000000000000000000000000000000000000000000000000000000000000000000000000000002800F500000000000000000000000000000000000000000000000000000000000000000000
310
00000000000000000000000000000000000000000000000000000000000000000000000000000000000000000000000000000000F50028000000000000000000000000000000000000000000000000000000000000000000000000000000000000000000000000000000000000000000000000000000000000000000000000
310
0000000000000000000000000000000000000000000000000000002D2D2D2D2D2D2D2D2D2D2D2D2D2D2D2D2D2D2D2D2D2D2D2D2D2D2D2D2D2D2D2D2D2D2D2D2D2D2D2D2D2D2D2D2D2D000000000000000000000000000000000000002800F50000000000000000000000000000000000000000000000000000000000000000
310
000000000000000000000000000000000000000000000000000000000000000000000000000000000000000000000000000000000000F5002800000000000000000000000000000000000000000000000000000000000000000000000000000000000000000000000000000000000000000000000000000000000000000000
310
00000000000000000000000000000000000000000000000000000000002D00000000000000000000000000000000000000002D2D2D2D2D000000000000000000000000000000000000002D000000000000000000000000000000000000002800F5000000000000000000000000000000000000000000000000000000000000
310
0000000000000000000000000000000000000000000000000000000000000000000000000000000000000000000000000000000000000000F5002800000000000000000000000000000000000000000000000000000000002D2D2D2D2D2D2D2D2D2D2D2D2D2D2D2D2D2D2D2D2D2D2D2D2D2D2D2D2D2D2D2D2D2D2D2D2D2D2D
310
2D2D2D2D2D00000000000000000000002D2D2D0000000000000000000000002D002D2D2D2D2D2D2D2D2D2D2D2D2D2D2D2D2D2D2D2D2D2D2D2D2D2D2D2D2D2D000000000000000000002D2D2D2D000000000000000000000000000000000000002800F500000000000000000000000000000000000000000000000000000000
310
00000000000000000000000000000000000000000000000000000000000000000000000000000000000000000000000000000000000000000000F5002800000000000000000000000000000000000000000000000000000000002D000000000000002D2D2D2D2D2D000000000000002DC3000000000000002D2D2D2D2D2D00
310
0000000000002D00000000000000000000002D2D2D0000000000000000000000002D002D00000000000000002D2D2D2D00000000000000002D002D2D2D2D2D002D002D00000000000000002D2D2D2D2D2D2D000000000000000000000000000000002800F50000000000000000000000000000000000000000000000000000
310
000000000000000000000000000000000000000000000000000000000000000000000000000000000000000000000000000000000000000000000000F5002800000000000000000000000000000000000000000000000000000000002D0028282828C3C3282828282828000000000000DC2DC3000000000000000000000000
310
00000000000000002D0000000000002D2D2D2D2D2D2D2D2D000000000000000000002D2D002D00000000000000000000000000000000000000002D002D2D2D2D2D002D2D2D2D2828282828282D2D2D2D2D2D2D2D000000000000000000000000000000002800F5000000000000000000000000000000000000000000000000
310
0000000000000000000000000000000000000000000000000000000000000000000000000000000000000000000000000000000000000000000000000000F5002800000000000000000000000000000000000000000000000000000000282D28282828282D2D28282828282828282828282828BE2828282828282828282828
310
282828282828282828002D0000000000002D2D2D2D2D2D2D2D00000000000000000000002D2D2D2D2D2D282828282828282828282828282828282828BE2828282828282D2D2D2D2D0000000000002D00282D2D2D0000000000000000000000000000000000002800F500000000000000000000000000000000000000000000
310
00000000000000000000000000000000000000000000000000000000000000000000000000000000000000000000000000000000000000000000000000000000F5002800000000000000000000000000000000000000000000000000002D2D2DBEBE002828282D2D28000000002828282828282828BE282828282828282828
310
2828282828282828282828282D0000000000002D2D2D2D0028282D00000000000000000000002D2D002D2D2D000000000000000000000000000000000000BE0000000000000000002D000000000000000000BEBEBE2D0000000000000000000000000000000000002800F50000000000000000000000000000000000000000
310
000000000000000000000000000000000000000000000000000000000000000000000000000000000000000000000000000000000000000000000000000000000000F500280000000000000000000000000000000000000000000000000000002D28BE0000000000282828280000000000282800000000BE00282800000000
310
00000028000000000000002828282D000000000000000000000028282D00000000000000002D2D2D2D2D00282D2D000000000000000000000000000000000000BE0000000000000000002D0000000000000000000000282D0000000000000000000000000000000000002800F5000000000000000000000000000000000000
310
0000000000000000000000000000000000000000000000000000000000000000000000000000000000000000000000000000000000000000000000000000000000000000F500280000000000000000000000000000000000000000000000000000002D28280000000000002800282828280028280000000000BE2828000000
310
000000002828282800000000002828282D280000000000000000000028282D00000000000000002D2D2D2D2D282D2D2D0000000000000000000000000000000000002D2D2D2D2D2D2D2D2D2D2D2D2D2D2D2D2D2D2D2D2D2D2D2D0000000000000000000000000000000000002800F500000000000000000000000000000000
310
00000000000000000000000000000000000000000000000000000000000000000000000000000000000000000000000000000000000000000000000000000000000000000000F500280000000000000000000000000000000000000000000000000000002D28280000000000280000000028282828280000000000BE282800
310
0000000000002800002828280000280000BEBE2D2D00000000000000000028BE2D0000000000000000000000002D2DBE2D000000000000000000000000000000000000002D00000000000000002D2D2D000000000000000000002D2D0000000000000000000000000000000000002800F50000000000000000000000000000
310
000000000000000000000000000000000000000000000000000000000000000000000000000000000000000000000000000000000000000000000000000000000000000000000000F500280000000000000000000000000000000000000000000000000000002D28280000000000280000000000002828282828000000BE28
310
2800000000000028280000000000282828000028BE282D00000000000000000028282800000000000000000000000028BE282D2D2D2D00000000000000000000000000000000BE00000000000000000000000000000000000000002D2D2D0000000000000000000000000000000000002800F5000000000000000000000000
310
0000000000000000000000000000000000000000000000000000000000000000000000000000000000000000000000000000000000000000000000000000000000000000000000000000F500280000000000000000000000000000000000000000000000000000002D28280000000028280000000000000028002828282800
310
BE28000000002D2D002800000000000000282828280028282D000000000000000000282800000000000000000000000000280000002D2D2D000000000000002D2D2D2D2D2D2D2D2D2D2D2D2D2D2D2D2D2D2D2D2D2D2D2D00000000002D2D2D2D0000000000000000000000000000000000002800F500000000000000000000
310
00000000000000000000000000000000000000000000000000000000000000000000000000000000000000000000000000000000000000000000000000000000000000000000000000000000F500280000000000000000000000000000000000000000000000000000002D2828000000002828000000000000280000000000
310
00282828280000002D2D002800000000000028280000002828282D00000000000000000028280000000000000000000000000028000000000000000000000000002D2828282828282828BE2D2D28282828282D2D2D2D2D2D2D00000000002D2D2D2D0000000000000000000000000000000000002800F50000000000000000
310
000000000000000000000000000000000000000000000000000000000000000000000000000000000000000000000000000000000000000000000000000000000000000000000000000000000000F500280000000000000000000000000000000000000000000000000000002D0000282800282800000000002D2D28000000
310
00000000BE002828282D2D00280000000000000028280000000028282D00000000000000000028280000000000000000000000000028000000000000000000000000002D000000000000000000000000000000002D2D002D00000000000000282D00002D0000000000000000000000000000000000002800F5000000000000
310
0000000000000000000000000000000000000000000000000000000000000000000000000000000000000000000000000000000000000000000000000000000000000000000000000000000000000000F500280000000000000000000000000000000000000000000000000000002D00000000282828280000002D2D2D2800
310
000000000028BE000000282D2828280000000000000028000000000028282D000000000000000000282800000000000000000000000000280000000000000000000000000028000000000000000000000000000000000028002D00000000002D28000000002D0000000000000000000000000000000000002800F500000000
310
00000000000000000000000000000000000000000000000000000000000000000000000000000000000000000000000000000000000000000000000000000000000000000000000000000000000000000000F500280000000000000000000000000000000000000000000000000000002D00000000002828282828282D2D28
310
2800000000000028BE000000002D2828282800000000000028000000000028282D000000000000000000282800000000000000000000000000280000000000000000000000000028000000000000000000000000000000000028002D00000000002800000000002D0000000000000000000000000000000000002800F50000
310
000000000000000000000000000000000000000000000000000000000000000000000000000000000000000000000000000000000000000000000000000000000000000000000000000000000000000000000000F500280000000000000000000000000000000000000000000000000000002D000000000028000000282D2D
310
28280000000000000028BE00000000000028280028282828002800000000000028282D0000000000000000002828000000000000000000000000002800000000000000000000000000280000000000000000000000000000000000282D2D00000000002D00000000002D0000000000000000000000000000000000002800F5
310
0000000000000000000000000000000000000000000000000000000000000000000000000000000000000000000000000000000000000000000000000000000000000000000000000000000000000000000000000000F500280000000000000000000000000000000000000000000000000000002D00000000002800000000
310
2D2828282800000000000028BE00000000002828000000000000282828000000002828282D0000000000000000002828000000000000000000000000002828000000000000000000000000280000000000000000000000000000000000282D2D00000000002800000000002D00000000000000000000000000000000000028
310
00F50000000000000000000000000000000000000000000000000000000000000000000000000000000000000000000000000000000000000000000000000000000000000000000000000000000000000000000000000000F500280000000000000000000000000000000000000000000000000000002D0000000000280000
310
00000000282800282828000028002D2D2D2D2D2D2D2D2D2D2D2D2D2D2D2828282828282800002D000000000000000000282800000000000000000000000000000028280000000000000000000028000000002D2D2D2D2D2D2D2D000000000028002D000000002D2D00000000002D0000000000000000000000000000000000
310
002800F50000000000000000000000000000000000000000000000000000000000000000000000000000000000000000000000000000000000000000000000000000000000000000000000000000000000000000000000000000F500280000000000000000000000000000000000000000000000000000002D000000000028
310
000000000028280000000000282828282D00000000002D2D2D2D2D2D2D002D2828282828000000002D000000000000000000282800000000000000000000000000000000002828280000000000000028000000002D2D2D2D2D2D2D2D000000000028002D0000002D2D2800000000002D000000000000000000000000000000
310
0000002800F50000000000000000000000000000000000000000000000000000000000000000000000000000000000000000000000000000000000000000000000000000000000000000000000000000000000000000000000000000F500280000000000000000000000000000000000000000000000000000002D00000000
310
002800000000002828000000000000282828282800002D2D2D2D000000000000BE2828000000000000002D00000000000000000028282800000000000000000000000000000000000000282DBE00000000280000000000ECECECECECEC00000000000028002D00002D2D2D2800000000002D00000000000000000000000000
310
00000000002800F50000000000000000000000000000000000000000000000000000000000000000000000000000000000000000000000000000000000000000000000000000000000000000000000000000000000000000000000000000F500280000000000000000000000000000000000000000000000000000002D0000
310
0000002800000000002D2D0000000000002828002D28282800282D2D2D2D000000BEBE2D2D2D2D2D2D0000002D00000000000000000028BEBE0000000000000000000000000000000000000000BEBE00000000282828282828ECECECBEECEC28282828282D2D2D2D2D2D2D2D2D2D2D2D0000002D0000000000000000000000
310
000000000000002800F50000000000000000000000000000000000000000000000000000000000000000000000000000000000000000000000000000000000000000000000000000000000000000000000000000000000000000000000000000F5002800000000000000000000000000000000000000000000000000002D2D
310
00000000002828280000282D2D2D2D2D2D2D2D2D2D2D2D0000002828282D2D2D00000028BE00280000002D0000002D0000000000000000002828000000000000000000000000000000000000000028000000000000000000000000000000BE000000000000000000000000002D00282D002D00002D2D000000000000000000
310
0000000000000000002800F50000000000000000000000000000000000000000000000000000000000000000000000000000000000000000000000000000000000000000000000000000000000000000000000000000000000000000000000000000F500280000000000000000000000000000000000000000000000000000
310
2D2D00000000000000282828282D2D2D2D2D2D2D2D2800002D000000002800282828280000280000280000002D00002D2D0000000000000000002828000000000000000000000000000000000000000028000000000000000000000000000000BE00000000000000000000BE00002D28002D002D00002D2D00000000000000
310
00000000000000000000002800F50000000000000000000000000000000000000000000000000000000000000000000000000000000000000000000000000000000000000000000000000000000000000000000000000000000000000000000000000000F50028000000000000000000000000000000000000000000000000
310
00002D2D000000000000002D2D2D2DBEBE280000000028000000BE000000280000000028282828280000002800002D00002D2D0000000000000000002828000000000000000000000000000000000000002D00000000000000000000000000000000BE000000000000000000BEBE2D280000002D002D00002D2D0000000000
310
000000000000000000000000002800F50000000000000000000000000000000000000000000000000000000000000000000000000000000000000000000000000000000000000000000000000000000000000000000000000000000000000000000000000000F5002800000000000000000000000000000000000000000000
310
000000002D2D00000000000000002D0028BE28282828002828000000BE000000280000000000002828282800002800002D00002D2D0000000000000000002828000000000000000000000000000000000000002D2D2D0000000000000000000000000000BE00000000000000000000BE00280000002D002D00002D2D000000
310
0000000000000000000000000000002800F50000000000000000000000000000000000000000000000000000000000000000000000000000000000000000000000000000000000000000000000000000000000000000000000000000000000000000000000000000F500280000000000000000000000000000000000000000
310
0000000000002D2D00000000000000002D28280000000028282828000000BE000028280000000000000028000028282800002D00002D2D0000000000000000002828000000000000000000000000000000000000002D2D2D00000000000000000000000000002D2D2D2D2D2D2D2D2D2D2D2D2D2D2D2D2D2D002D00002D2D00
310
00000000000000000000000000000000002800F50000000000000000000000000000000000000000000000000000000000000000000000000000000000000000000000000000000000000000000000000000000000000000000000000000000000000000000000000000F50028000000000000000000000000000000000000
310
00000000000000002D2D00000000000000002D28000000000000002828282800BE000028280000000000002800000000002800002D00002D2D00000000000000002D2D2D2D2D2D000000000000000000000000000000002D2D2D0000000000000000000000000000BE000000002D2D2D000000000028002D2D00002D000000
310
2D0000000000000000000000000000000000002800F50000000000000000000000000000000000000000000000000000000000000000000000000000000000000000000000000000000000000000000000000000000000000000000000000000000000000000000000000000F5002800000000000000000000000000000000
310
00000000000000000000002D00000000000000002D280000002D2D00002800282828BE002828000000000000002800000000002800002D00002D2D000000000000000000282D002D2D0000000000000000000000000000002D2D2D000000000000000000000000000000BE0000000000000000000000002800000000002D00
310
00002D0000000000000000000000000000000000002800F50000000000000000000000000000000000000000000000000000000000000000000000000000000000000000000000000000000000000000000000000000000000000000000000000000000000000000000000000000F500280000000000000000000000000000
310
000000000000000000000000002D00000000000000002D280000002D2D2D2D2D00000000BE28282828000000000000280000000028282D2D2D00002D2D00000000000000000028280000000000000000000000000000000000002D2D28000000000000000000000000000000BE00000000000000000000002D2D0000000000
310
2D0000002D0000000000000000000000000000000000002800F50000000000000000000000000000000000000000000000000000000000000000000000000000000000000000000000000000000000000000000000000000000000000000000000000000000000000000000000000000F50028000000000000000000000000
310
0000000000000000000000000000002D00000000000000002D2800000000000028002D000000BE00280028282828000028002828282800002D2D2D0000002D000000000000000000282800000000000000000000000000000000002D2D2D00282800000000000000000000000000BE000000000000000000002D2D28000000
310
00002D0000002D0000000000000000000000000000000000002800F50000000000000000000000000000000000000000000000000000000000000000000000000000000000000000000000000000000000000000000000000000000000000000000000000000000000000000000000000000F5002800000000000000000000
310
00000000000000000000000000000000002D000000000000002D2D28280000000028280000000000BE28000000002828282828282828000000002D2D2D0000002D0000000000000000002828000000000000000000000000000000000000002D2D2D00282D2D2D000000000000000000BE0000000000000000002D2D2D2800
310
000000002D0000002D0000000000000000000000000000000000002800F50000000000000000000000000000000000000000000000000000000000000000000000000000000000000000000000000000000000000000000000000000000000000000000000000000000000000000000000000000F500280000000000000000
310
000000000000000000000000000000000000002D000000000000002D2D28282828000028000000000000BE28000000000000282828280000000000002D2D2D0000002D0000000000000000002828000000000000000000000000000000000000002D2D2D2D2D2D2D2D000000000000000000BE0000000000000000002D0028
310
2D000000002D2D0000002D0000000000000000000000000000000000002800F50000000000000000000000000000000000000000000000000000000000000000000000000000000000000000000000000000000000000000000000000000000000000000000000000000000000000000000000000000F50028000000000000
310
0000000000000000000000000000000000000000002D000000000000002D2D00002828282828280000000000BE28000000002D2D2D2D28000000000000002D2D2D0000002D0000000000000000002828000000000000000000000000000000000000000000002D002D2D2D000000000000000000BE0000000000000000002D
310
280000000000002D2D0000002D0000000000000000000000000000000000002800F50000000000000000000000000000000000000000000000000000000000000000000000000000000000000000000000000000000000000000000000000000000000000000000000000000000000000000000000000000F5002800000000
310
00000000000000000000000000000000000000000000002D000000000000002D2D00000000282828282828000000BE2800002D2D2D2D2D2D2D280000000000002D2D2D0000002D000000000000000000282800000000000000000000000000000000000000000000002D2D2800000000000000000000BE0000000000002D2D
310
280000000000000000002D0000002D0000000000000000000000000000000000002800F50000000000000000000000000000000000000000000000000000000000000000000000000000000000000000000000000000000000000000000000000000000000000000000000000000000000000000000000000000F500280000
310
000000000000000000000000000000000000000000000000002D000000000000002D2D00000000002800002828282800280000002D2D000028000028002D2D00000000002D0000002D000000000000000000282800000000000000000000000000000000000000000000002D2D2800000000000000000000BE00000000002D
310
2D2D000000000000000000002D0000002D0000000000000000000000000000000000002800F50000000000000000000000000000000000000000000000000000000000000000000000000000000000000000000000000000000000000000000000000000000000000000000000000000000000000000000000000000F50028
310
0000000000000000000000000000000000000000000000000000002D000000000000002D2D000000000028000000000028282828002D2D2D000028000028282D2D00000000002D0000002D000000000000000000282800000000000000000000000000000000000000000000002D2D2D002D0000000000000000BE00000000
310
002D2D2D000000000000000000002D0000002D0000000000000000000000000000000000002800F50000000000000000000000000000000000000000000000000000000000000000000000000000000000000000000000000000000000000000000000000000000000000000000000000000000000000000000000000000F5
310
00280000000000000000000000000000000000000000000000000000002D00000000000000002D000000000028000000000000282828282D2D28002800000028282D2D00000000002D0000002D000000000000000000282800C3C300000000000000000000000000000000000000002D2D2D2D2D0000000000000000BE0000
310
000000002D28000000000000000000002D0000002D0000000000000000000000000000000000002800F500000000000000000000000000000000000000000000000000000000000000000000000000000000000000000000000000000000000000000000000000000000000000000000000000000000000000000000000000
310
00F500280000000000000000000000000000000000000000000000000000002D00000000000000002D00000000002800000000002828BE28002D2D28282800000028282D2D00000000002D0000002D00000000000000000028DCDCC3C3000000000000000000000000000000000000002D2D2D2D2D2D0000000000000000BE
310
0000000000000028000000000000000000002D0000002D0000000000000000000000000000000000002800F50000000000000000000000000000000000000000000000000000000000000000000000000000000000000000000000000000000000000000000000000000000000000000000000000000000000000000000000
310
000000F500280000000000000000000000000000000000000000000000000000002D00000000000000002D000000000028000000000028282828002D0000282828000000282D2D00000000002D0000002D000000000000000000DC282D0000000000000000000000000000000000000000002D002D2D2D0000000000000000
310
28BE00000000002D2D2D000000000000000000002D0000002D0000000000000000000000000000000000002800F5000000000000000000000000000000000000000000000000000000000000000000000000000000000000000000000000000000000000000000000000000000000000000000000000000000000000000000
310
0000000000F500280000000000000000000000000000000000000000000000000000002D00000000000000002D000000000028000000000028BEBE2D2D2D2D2D2D2D2D2D2D2D2D2D2D00000000002D0000002D000000000000000000DCBEDCDC000000000000000000000000000000000000002D2D2D28002D000000000000
310
0000BEBE00000000002D2D2D000000000000000000002D0000002D0000000000000000000000000000000000002800F500000000000000000000000000000000000000000000000000000000000000000000000000000000000000000000000000000000000000000000000000000000000000000000000000000000000000
310
00000000000000F500280000000000000000000000000000000000000000000000000000002D00000000000000002D0000000000282800000000282828280000000028000028282828002D00000000002D0000002D000000000000000000DCDCDC000000000000000000000000000000000000002D2D2D2D2D280000000000
310
0000000000BE00000000002D2D2D000000000000000000002D0000002D0000000000000000000000000000000000002800F50000000000000000000000000000000000000000000000000000000000000000000000000000000000000000000000000000000000000000000000000000000000000000000000000000000000
310
000000000000000000F500280000000000000000000000000000000000000000000000000000002D00000000000000002D00000000000000282800282800BE280000000028282828280000002D00000000002D0000002D000000000000000000282800000000000000000000000000000000000000002D2D2D2D0000282828
310
28000000000000BE00000000282D002D000000000000000000002D0000002D0000000000000000000000000000000000002800F5000000000000000000000000000000000000000000000000000000000000000000000000000000000000000000000000000000000000000000000000000000000000000000000000000000
310
0000000000000000000000F5002800000000000000000000000000000000000000000000000000002D2D2D2D2D2D2D2D2D2D2D2D2D2D2D2D2D2D2D2D2D2D282828C32828282D2D2D2D2D2D2D2D2D2D2D2D2D2D2D2D2D2D2D2D0000000000000000002828000000000000000000000000000000000000000000000000000000
310
000000282D28282828BE28282D2D2D2D2D2D2D2D2D2D2D2D2D2D2D2D2D2D2D2D2D2D00000000000000000000000000000000002800F500000000000000000000000000000000000000000000000000000000000000000000000000000000000000000000000000000000000000000000000000000000000000000000000000
310
00000000000000000000000000F500280000000000000000000000000000000000000000000000000000000000000000000000000000000000000000000000000000BEC30000000000000000000000000000000000000000000000000000000000000000000000000000000000000000000000000000000000000000000000
310
000000002D2D2D000000002D00002D000000002D0000000000000000000000000000000000000000000000000000000000000000002800F50000000000000000000000000000000000000000000000000000000000000000000000000000000000000000000000000000000000000000000000000000000000000000000000
310
000000000000000000000000000000F5002800000000000000000000000000000000000000000000000000000000000000000000000000000000000000000000000000DCDC00000000000000000000000000000000000000000000000000000000000000000000000000000000000000000000000000000000000000000000
310
0000000000002D2D2D2D2D2D2D2D2D2D2D2D2D2D2D2D0000000000000000000000000000000000000000000000000000000000000000002800F5000000000000000000000000000000000000000000000000000000000000000000000000000000000000000000000000000000000000000000000000000000000000000000
310
0000000000000000000000000000000000F500280000000000000000000000000000000000000000000000000000000000000000000000000000000000000000000000000000000000000000000000000000000000000000000000000000000000000000000000000000000000000000000000000000000000000000000000
310
00000000000000002D2D00000000002D2D2D2D2D2D2D2D2D0000000000000000000000000000000000000000000000000000000000000000002800F500000000000000000000000000000000000000000000000000000000000000000000000000000000000000000000000000000000000000000000000000000000000000
310
00000000000000000000000000000000000000F50028000000000000000000000000000000000000000000000000000000000000000000000000000000000000000000000000000000000000000000000000000000000000000000000000000000000000000000000000000000000000000000000000000000000000000000
310
00000000000000000000000000000000000000002D2D2D0000000000000000000000000000000000000000000000000000000000000000000000002800F50000000000000000000000000000000000000000000000000000000000000000000000000000000000000000000000000000000000000000000000000000000000
310
000000000000000000000000000000000000000000F5002800000000000000000000000000000000000000000000000000000000000000000000000000000000000000000000000000000000000000000000000000000000000000000000000000000000000000000000000000000000000000000000000000000000000000
310
000000000000000000000000000000000000000000000000000000000000000000000000000000000000000000000000000000000000000000000000002800F5000000000000000000000000000000000000000000000000000000000000000000000000000000000000000000000000000000000000000000000000000000
310
0000000000000000000000000000000000000000000000F500280000000000000000000000000000000000000000000000000000000000000000000000000000000000000000000000000000000000000000000000000000000000000000000000000000000000000000000000000000000000000000000000000000000000
310
0000000000000000000000000000000000000000000000000000000000000000000000000000000000000000000000000000000000000000000000000000002800F500000000000000000000000000000000000000000000000000000000000000000000000000000000000000000000000000000000000000000000000000
310
00000000000000000000000000000000000000000000000000F50028000000000000000000000000000000000000000000000000000000000000000000000000000000000000000000000000000000000000000000000000000000000000000000000000000000000000000000000000000000000000000000000000000000
310
00000000000000000000000000000000000000000000000000000000000000000000000000000000000000000000000000000000000000000000000000000000002800F50000000000000000000000000000000000000000000000000000000000000000000000000000000000000000000000000000000000000000000000
310
000000000000000000000000000000000000000000000000000000F5002800000000000000000000000000000000000000000000000000000000000000000000000000000000000000000000000000000000000000000000000000000000000000000000000000000000000000000000000000000000000000000000000000
310
000000000000000000000000000000000000000000000000000000000000000000000000000000000000000000000000000000000000000000000000000000000000002800F5000000000000000000000000000000000000000000000000000000000000000000000000000000000000000000000000000000000000000000
310
0000000000000000000000000000000000000000000000000000000000F500280000000000000000000000000000000000000000000000000000000000000000000000000000000000000000000000000000000000000000000000000000000000000000000000000000000000000000000000000000000000000000000000
310
0000000000000000000000000000000000000000000000000000000000000000000000000000000000000000000000000000000000000000000000000000000000000000002800F500000000000000000000000000000000000000000000000000000000000000000000000000000000000000000000000000000000000000
310
00000000000000000000000000000000000000000000000000000000000000F50028000000000000000000000000000000000000000000000000000000000000000000000000000000000000000000000000000000000000000000000000000000000000000000000000000000000000000000000000000000000000000000
310
00000000000000000000000000000000000000000000000000000000000000000000000000000000000000000000000000000000000000000000000000000000000000000000002800F50000000000000000000000000000000000000000000000000000000000000000000000000000000000000000000000000000000000
310
000000000000000000000000000000000000000000000000000000000000000000F5002800000000000000000000000000000000000000000000000000000000000000000000000000000000000000000000000000000000000000000000000000000000000000000000000000000000000000000000000000000000000000
310
0000000000000000000000000000000000002D2D2D2D2D2D2D2D2D2D2D2D2D2D2D2D2D2D2D2D2D2D2D2D2D2D2D2D2D2D2D2D2D2D2D2D2D2D2D2D2D2D2D2D2D2D2D2D2D2D2D2D0000002800F5000000000000000000000000000000000000000000000000000000000000000000000000000000000000000000000000000000
310
0000000000000000000000000000000000000000000000000000000000000000000000F500280000000000000000000000000000000000000000000000000000000000000000000000000000000000000000000000000000000000000000000000000000000000000000000000000000000000000000000000000000000000
310
0000000000000000000000000000000000000000000000000000000000000000000000000000000000000000000000000000000000000000000000000000000000000000000000000000002800F500000000000000000000000000000000000000000000000000000000000000000000000000000000000000000000000000
310
00000000000000000000000000000000000000000000000000000000000000000000000000F50028000000000000000000000000000000000000000000000000000000000000000000000000000000000000000000000000000000000000000000000000000000000000000000000000000000000000000000000000000000
310
000000000000000000000000000000000000000000002D2D2D2D2D2D2D2D2D2D2D2D2D2D2D2D2D2D2D2D2D2D2D2D2D2D2D2D2D2D2D2D2D2D2D2D2D2D2D2D2D2D2D2D2D2D2D2D2D2D2D2D2D00002800F50000000000000000000000000000000000000000000000000000000000000000000000000000000000000000000000
310
000000000000000000000000000000000000000000000000000000000000000000000000000000F5002800000000000000000000000000000000000000000000000000000000000000000000000000000000000000000000000000000000000000000000000000000000000000000000000000000000000000000000000000
310
000000000000000000000000000000000000000000000000000000000000000000000000000000000000000000000000000000000000000000000000000000000000000000000000000000000000002800F5000000000000000000000000000000000000000000000000000000000000000000000000000000000000000000
310
0000000000000000000000000000000000000000000000000000000000000000000000000000000000F500280000000000000000000000000000000000000000000000000000000000000000000000000000000000000000000000000000000000000000000000000000000000000000000000000000000000000000000000
310
000000000000000000000000000000000000000000000000000000002D2D2D2D2D2D2D2D2D2D2D2D2D2D2D2D2D2D2D2D2D2D000000000000000000000000000000000000000000000000000000000000002800F500000000000000000000000000000000000000000000000000000000000000000000000000000000000000
310
00000000000000000000000000000000000000000000000000000000000000000000000000000000000000F50028000000000000000000000000000000000000000000000000000000000000000000000000000000000000000000000000000000000000000000000000000000000000000000000000000000000000000000
310
00000000000000000000000000000000000000000000000000000000000000000000000000000000000000000000000000000000000000000000000000000000000000000000000000000000000000000000002800F50000000000000000000000000000000000000000000000000000000000000000000000000000000000
310
000000000000000000000000000000000000000000000000000000000000000000000000000000000000000000F5002800000000000000000000000000000000000000000000000000000000000000000000000000000000000000000000000000000000000000000000000000000000000000000000000000000000000000
310
0000000000000000000000000000000000000000000000000000000000002D2D2D2D2D2D2D2D2D2D2D2D2D2D2D2D2D2D2D2D2D2D2D2D2D2D2D2D2D2D2D2D2D2D2D2D2D2D2D2D2D2D2D2D2D2D2D2D2D0000000000002800F5000000000000000000000000000000000000000000000000000000000000000000000000000000
310
0000000000000000000000000000000000000000000000000000000000000000000000000000000000000000000000F500280000000000000000000000000000000000000000000000000000000000000000000000000000000000000000000000000000000000000000000000000000000000000000000000000000000000
310
00000000000000000000000000000000000000000000000000000000000000002D2D2D2D2D2D2D2D2D2D2D2D2D2D2D2D2D2D2D2D2D2D2D2D2D2D2D2D2D2D2D2D2D2D2D2D2D2D2D2D2D2D2D2D2D2D2D2D2D2D00000000002800F500000000000000000000000000000000000000000000000000000000000000000000000000
310
00000000000000000000000000000000000000000000000000000000000000000000000000000000000000000000000000F50028000000000000000000000000000000000000000000000000000000000000000000000000000000000000000000000000000000000000000000000000000000000000000000000000000000
310
000000000000000000000000000000000000000000000000000000000000000000002D2D2D2D2D2D2D2D2D2D2D2D2D2D2D2D2D2D2D2D2D2D2D2D2D2D2D2D2D2D2D2D2D2D2D2D2D2D2D2D2D2D2D2D2D2D2D2D2D2D00000000002800F50000000000000000000000000000000000000000000000000000000000000000000000
310
000000000000000000000000000000000000000000000000000000000000000000000000000000000000000000000000000000F5002800000000000000000000000000000000000000000000000000000000000000000000000000000000000000000000000000000000000000000000000000000000000000000000000000
310
0000000000000000000000000000000000000000000000000000000000000000000000002D2D2D2D2D2D2D2D2D2D2D2D2D2D2D2D2D2D2D2D2D2D2D2D2D2D2D2D2D2D2D2D2D2D0000000000000000000000000000000000000000002800F5000000000000000000000000000000000000000000000000000000000000000000
310
0000000000000000000000000000000000000000000000000000000000000000000000000000000000000000000000000000000000F500280000000000000000000000000000000000000000000000000000000000000000000000000000000000000000000000000000000000000000000000000000000000000000000000
310
00000000000000000000000000000000000000000000000000000000000000000000000000002D2D2D2D2D2D2D2D2D2D2D2D2D2D2D2D2D2D2D2D2D2D2D2D2D2D2D2D2D2D2D2D2D2D0000000000000000000000000000000000000000002800F500000000000000000000000000000000000000000000000000000000000000
310
00000000000000000000000000000000000000000000000000000000000000000000000000000000000000000000000000000000000000F50028000000000000000000000000000000000000000000000000000000000000000000000000000000000000000000000000000000000000000000000000000000000000000000
310
000000000000000000000000000000000000000000000000000000000000000000000000000000002D2D2D2D2D2D2D2D2D2D2D2D2D0000000000000000000000000000000000000000000000000000000000000000000000000000000000002800F50000000000000000000000000000000000000000000000000000000000
310
000000000000000000000000000000000000000000000000000000000000000000000000000000000000000000000000000000000000000000F5002800000000000000000000000000000000000000000000000000000000000000000000000000000000000000000000000000000000000000000000000000000000000000
310
0000000000000000000000000000000000000000000000000000000000000000000000000000000000002D2D2D2D2D2D2D2D2D2D2D2D2D0000000000000000000000000000000000000000000000000000000000000000000000000000000000002800F5000000000000000000000000000000000000000000000000000000
310
0000000000000000000000000000000000000000000000000000000000000000000000000000000000000000000000000000000000000000000000F500280000000000000000000000000000000000000000000000000000000000000000000000000000000000000000000000000000000000000000000000000000000000
310
00000000000000000000000000000000000000000000000000000000000000000000000000000000000000000000000000002D2D2D2D2D2D2D2D2D2D2D00000000000000000000000000000000000000000000000000000000000000002D00000000002800F500000000000000000000000000000000000000000000000000
310
00000000000000000000000000000000000000000000000000000000000000000000000000000000000000000000000000000000000000000000000000F50028282828282828282828282828282828282828282828282828000000000000000000000000000000000000000000000000000000000000000000000000000000
310
000000000000000000000000000000000000000000000000000000000000000000000000000000000000000000000000000000002D2D2D2D2D2D2D2D2D2D2D00000000000000000000000000000000000000000000000000000000000000002D2D000000002800F50000000000000000000000000000000000000000000000
310
000000000000000000000000000000000000000000000000000000000000000000000000000000000000000000000000000000000000000000000000000000F50028000000002D2D2D2D2D2D2D2D2D2D2D2D2D2D2D2D0000002800000000000000000000000000000000000000000000000000000000000000000000000000
310
0000000000000000000000000000000000000000000000000000000000000000000000000000000000000000000000000000000000000000000000000000000000000000000000000000000000000000000000000000000000000000000000002D2D2D000000002800F5000000000000000000000000000000000000000000
310
0000000000000000000000000000000000000000000000000000000000000000000000000000000000000000000000000000000000000000000000000000000000F50028000000002D2D2D2D2D2D2D2D2D2D2D2D2D2D2D2D000000280000000000000000000000000000000000000000000000000000000000000000000000
310
00000000000000000000000000000000000000000000000000000000000000000000000000000000000000000000000000000000000000000000000000000000000000000000000000000000000000000000000000000000000000000000000000002D2D002D0000002800F500000000000000000000000000000000000000
310
00000000000000000000000000000000000000000000000000000000000000000000000000000000000000000000000000000000000000000000000000000000000000F50028000000002D2D2D2D2D2D2D2D2D2D2D2D2D2D2D2D00000028000000000000000000000000000000000000000000000000000000000000000000
310
000000000000000000000000000000000000000000000000000000000000000000000000000000000000000000000000000000000000000000000000000000000000000000000000000000000000000000000000000000000000000000000000000000000000002D0000002800F50000000000000000000000000000000000
310
000000000000000000000000000000000000000000000000000000000000000000000000000000000000000000000000000000000000000000000000000000000000000000F5002800000000000000000000000000000000000000000000002800000000000000000000000000000000000000000000000000000000000000
310
000000000000000000000000000000000000000000000000000000000000000000000000000000000000000000000000000000000000000000000000000000000000000000000000000000000000000000000000000000000000000000000000000000000000000000000000002800F5000000000000000000000000000000
310
0000000000000000000000000000000000000000000000000000000000000000000000000000000000000000000000000000000000000000000000000000000000000000000000F500282828282828282828282828282828282828282828282828282828282828282828282828282828282828282828282828282828282828
310
2828282828282828282828282828282828282828282828282828282828282828282828282828282828282828282828282828282828282828282828282828282828282828282828282828282828282828282828282828282828282828282828282828282828282828282828282828282800F500000000000000000000000000
310
00000000000000000000000000000000000000000000000000000000000000000000000000000000000000000000000000000000000000000000000000000000000000000000000000F50000000000000000000000000000000000000000000000000000000000000000000000000000000000000000000000000000000000
310
00000000000000000000000000000000000000000000000000000000000000000000000000000000000000000000000000000000000000000000000000000000000000000000000000000000000000000000000000000000000000000000000000000000000000000000000000000000000000F50000000000000000000000
310
000000000000000000000000000000000000000000000000000000000000000000000000000000000000000000000000000000000000000000000000000000000000000000000000000000F5F5F5F5F5F5F5F5F5F5F5F5F5F5F5F5F5F5F5F5F5F5F5F5F5F5F5F5F5F5F5F5F5F5F5F5F5F5F5F5F5F5F5F5F5F5F5F5F5F5F5F5
310
F5F5F5F5F5F5F5F5F5F5F5F5F5F5F5F5F5F5F5F5F5F5F5F5F5F5F5F5F5F5F5F5F5F5F5F5F5F5F5F5F5F5F5F5F5F5F5F5F5F5F5F5F5F5F5F5F5F5F5F5F5F5F5F5F5F5F5F5F5F5F5F5F5F5F5F5F5F5F5F5F5F5F5F5F5F5F5F5F5F5F5F5F5F5F5F5F5F5F5F5F5F5F5F5F5F5F5F5F5F5F5F5F5F5F5F5F5F5000000000000000000
310
00000000000000000000000000000000000000000000000000000000000000000000
  0
XRECORD
  5
633E
102
{ACAD_REACTORS
330
633D
102
}
330
633D
100
AcDbXrecord
280
     1
102
MATERIAL
148
0.0
149
0.0
149
0.0
 93
        0
 94
       63
282
     0
 72
     1
 77
     1
171
     1
175
     1
179
     1
273
     0
  0
XRECORD
  5
6340
102
{ACAD_REACTORS
330
633F
102
}
330
633F
100
AcDbXrecord
280
     1
102
MATERIAL
148
0.0
149
0.0
149
0.0
 93
        0
 94
       63
282
     0
 72
     1
 77
     1
171
     1
175
     1
179
     1
273
     0
  0
XRECORD
  5
633C
102
{ACAD_REACTORS
330
633B
102
}
330
633B
100
AcDbXrecord
280
     1
102
MATERIAL
148
0.0
149
0.0
149
0.0
 93
        0
 94
       63
282
     0
 72
     1
 77
     1
171
     1
175
     1
179
     1
273
     0
  0
ACAD_PROXY_OBJECT
  5
60F2
102
{ACAD_REACTORS
330
1C38
102
}
330
1C38
100
AcDbProxyObject
 90
      499
 91
      512
 95
  6815769
 70
     0
 93
     5304
310
40D054060020000020000003200101A000080002A5058000000C10000000000000006101010000000000003E0FC000000000000F83F0000000000003E0FC000000000000F83F02B5E8DC0F42B1CFC0AD7A3703D0AC73F419019018000000C1003FBFFFFFE02B5E8DC0F42A9CFD029018000000C1003FBFFFFFE02B5E8DC0F4
310
2A9CFD049018000000C1003FBFFFFFE02B5E8DC0F42A9CFD089018000000C1003FBFFFFFE02B5E8DC0F42A9CFD109018000000C1003FBFFFFFE02B5E8DC0F42A9CFD209018000000C1003FBFFFFFE02B5E8DC0F42A9CFD01405075F5449544C450041501A8000000C800406800020000A94160000003040000000000000012
310
40404000000000000F83F0000000000003E0FC000000000000F83F0000000000003E0FC0AD7A3703D0AC73F02B5E8DC0F42B1CFD0640640600000030400FEFFFFFF80AD7A3703D0AA73F40A40600000030400FEFFFFFF80AD7A3703D0AA73F41240600000030400FEFFFFFF80AD7A3703D0AA73F42240600000030400FEFFF
310
FFF80AD7A3703D0AA73F44240600000030400FEFFFFFF80AD7A3703D0AA73F48240600000030400FEFFFFFF80AD7A3703D0AA73F409014217D2115051115480105406A0000003200101A000080002A5028000000C10000000000000004901010000000000003E0FC000000000000F83F0000000000003E0FC000000000000F
310
83F02B5E8DC0F42B1CFC0AD7A3703D0AC73F419019018000000C1003FBFFFFFE02B5E8DC0F42A9CFD029018000000C1003FBFFFFFE02B5E8DC0F42A9CFD049018000000C1003FBFFFFFE02B5E8DC0F42A9CFD089018000000C1003FBFFFFFE02B5E8DC0F42A9CFD109018000000C1003FBFFFFFE02B5E8DC0F42A9CFD20901
310
8000000C1003FBFFFFFE02B5E8DC0F42A9CFD03409065F444154410000
340
11
340
0
340
0
340
0
340
0
340
0
340
0
340
11
340
0
340
0
340
0
340
0
340
0
340
0
340
11
340
0
340
0
340
0
340
0
340
0
340
0
 94
        0
  0
XRECORD
  5
6341
102
{ACAD_REACTORS
330
1C38
102
}
330
1C38
100
AcDbXrecord
280
     1
102
ACAD_ROUNDTRIP_PRE2007_TABLESTYLE
 90
      512
 91
        0
  1

 92
      512
 93
        0
  2

 94
      512
 95
        0
  3

  0
XRECORD
  5
6106
102
{ACAD_REACTORS
330
6105
102
}
330
6105
100
AcDbXrecord
280
     1
102
RTVSPropertyOp0
 70
     1
102
RTVSPropertyOp1
 70
     1
102
RTVSPropertyOp2
 70
     1
102
RTVSPropertyOp3
 70
     1
102
RTVSPropertyOp4
 70
     1
102
RTVSPropertyOp5
 70
     1
102
RTVSPropertyOp6
 70
     1
102
RTVSPropertyOp7
 70
     1
102
RTVSPropertyOp8
 70
     1
102
RTVSPropertyOp9
 70
     1
102
RTVSPropertyOp10
 70
     1
102
RTVSPropertyOp11
 70
     1
102
RTVSPropertyOp12
 70
     1
102
RTVSPropertyOp13
 70
     1
102
RTVSPropertyOp14
 70
     1
102
RTVSPropertyOp15
 70
     1
102
RTVSPropertyOp16
 70
     1
102
RTVSPropertyOp17
 70
     1
102
RTVSPropertyOp18
 70
     1
102
RTVSPropertyOp19
 70
     1
102
RTVSPropertyOp20
 70
     1
102
RTVSPropertyOp21
 70
     1
102
RTVSPropertyOp22
 70
     1
102
RTVSPropertyOp23
 70
     1
102
RTVSPropertyOp24
 70
     1
102
RTVSPropertyOp25
 70
     1
102
RTVSPropertyOp26
 70
     1
102
RTVSPropertyOp27
 70
     1
102
RTVSPropertyOp28
 70
     1
102
RTVSPropertyOp29
 70
     1
102
RTVSPropertyOp30
 70
     1
102
RTVSPropertyOp31
 70
     1
102
RTVSPropertyOp32
 70
     1
  0
XRECORD
  5
610A
102
{ACAD_REACTORS
330
6109
102
}
330
6109
100
AcDbXrecord
280
     1
102
RTVSPropertyOp0
 70
     1
102
RTVSPropertyOp1
 70
     1
102
RTVSPropertyOp2
 70
     1
102
RTVSPropertyOp3
 70
     1
102
RTVSPropertyOp4
 70
     1
102
RTVSPropertyOp5
 70
     1
102
RTVSPropertyOp6
 70
     1
102
RTVSPropertyOp7
 70
     1
102
RTVSPropertyOp8
 70
     1
102
RTVSPropertyOp9
 70
     1
102
RTVSPropertyOp10
 70
     1
102
RTVSPropertyOp11
 70
     1
102
RTVSPropertyOp12
 70
     1
102
RTVSPropertyOp13
 70
     1
102
RTVSPropertyOp14
 70
     1
102
RTVSPropertyOp15
 70
     1
102
RTVSPropertyOp16
 70
     1
102
RTVSPropertyOp17
 70
     1
102
RTVSPropertyOp18
 70
     1
102
RTVSPropertyOp19
 70
     1
102
RTVSPropertyOp20
 70
     1
102
RTVSPropertyOp21
 70
     1
102
RTVSPropertyOp22
 70
     1
102
RTVSPropertyOp23
 70
     1
102
RTVSPropertyOp24
 70
     1
102
RTVSPropertyOp25
 70
     1
102
RTVSPropertyOp26
 70
     1
102
RTVSPropertyOp27
 70
     1
102
RTVSPropertyOp28
 70
     1
102
RTVSPropertyOp29
 70
     1
102
RTVSPropertyOp30
 70
     1
102
RTVSPropertyOp31
 70
     1
102
RTVSPropertyOp32
 70
     1
  0
XRECORD
  5
6108
102
{ACAD_REACTORS
330
6107
102
}
330
6107
100
AcDbXrecord
280
     1
102
RTVSPropertyOp0
 70
     1
102
RTVSPropertyOp1
 70
     1
102
RTVSPropertyOp2
 70
     1
102
RTVSPropertyOp3
 70
     1
102
RTVSPropertyOp4
 70
     1
102
RTVSPropertyOp5
 70
     1
102
RTVSPropertyOp6
 70
     1
102
RTVSPropertyOp7
 70
     1
102
RTVSPropertyOp8
 70
     1
102
RTVSPropertyOp9
 70
     1
102
RTVSPropertyOp10
 70
     1
102
RTVSPropertyOp11
 70
     1
102
RTVSPropertyOp12
 70
     1
102
RTVSPropertyOp13
 70
     1
102
RTVSPropertyOp14
 70
     1
102
RTVSPropertyOp15
 70
     1
102
RTVSPropertyOp16
 70
     1
102
RTVSPropertyOp17
 70
     1
102
RTVSPropertyOp18
 70
     1
102
RTVSPropertyOp19
 70
     1
102
RTVSPropertyOp20
 70
     1
102
RTVSPropertyOp21
 70
     1
102
RTVSPropertyOp22
 70
     1
102
RTVSPropertyOp23
 70
     1
102
RTVSPropertyOp24
 70
     1
102
RTVSPropertyOp25
 70
     1
102
RTVSPropertyOp26
 70
     1
102
RTVSPropertyOp27
 70
     1
102
RTVSPropertyOp28
 70
     1
102
RTVSPropertyOp29
 70
     1
102
RTVSPropertyOp30
 70
     1
102
RTVSPropertyOp31
 70
     1
102
RTVSPropertyOp32
 70
     1
  0
XRECORD
  5
6104
102
{ACAD_REACTORS
330
6103
102
}
330
6103
100
AcDbXrecord
280
     1
102
RTVSPropertyOp0
 70
     1
102
RTVSPropertyOp1
 70
     1
102
RTVSPropertyOp2
 70
     1
102
RTVSPropertyOp3
 70
     1
102
RTVSPropertyOp4
 70
     1
102
RTVSPropertyOp5
 70
     1
102
RTVSPropertyOp6
 70
     1
102
RTVSPropertyOp7
 70
     1
102
RTVSPropertyOp8
 70
     1
102
RTVSPropertyOp9
 70
     1
102
RTVSPropertyOp10
 70
     1
102
RTVSPropertyOp11
 70
     1
102
RTVSPropertyOp12
 70
     1
102
RTVSPropertyOp13
 70
     1
102
RTVSPropertyOp14
 70
     1
102
RTVSPropertyOp15
 70
     1
102
RTVSPropertyOp16
 70
     1
102
RTVSPropertyOp17
 70
     1
102
RTVSPropertyOp18
 70
     1
102
RTVSPropertyOp19
 70
     1
102
RTVSPropertyOp20
 70
     1
102
RTVSPropertyOp21
 70
     1
102
RTVSPropertyOp22
 70
     1
102
RTVSPropertyOp23
 70
     1
102
RTVSPropertyOp24
 70
     1
102
RTVSPropertyOp25
 70
     1
102
RTVSPropertyOp26
 70
     1
102
RTVSPropertyOp27
 70
     1
102
RTVSPropertyOp28
 70
     1
102
RTVSPropertyOp29
 70
     1
102
RTVSPropertyOp30
 70
     1
102
RTVSPropertyOp31
 70
     1
102
RTVSPropertyOp32
 70
     1
  0
XRECORD
  5
6112
102
{ACAD_REACTORS
330
6111
102
}
330
6111
100
AcDbXrecord
280
     1
102
RTVSPropertyOp0
 70
     1
102
RTVSPropertyOp1
 70
     1
102
RTVSPropertyOp2
 70
     1
102
RTVSPropertyOp3
 70
     1
102
RTVSPropertyOp4
 70
     1
102
RTVSPropertyOp5
 70
     1
102
RTVSPropertyOp6
 70
     1
102
RTVSPropertyOp7
 70
     1
102
RTVSPropertyOp8
 70
     1
102
RTVSPropertyOp9
 70
     1
102
RTVSPropertyOp10
 70
     1
102
RTVSPropertyOp11
 70
     1
102
RTVSPropertyOp12
 70
     1
102
RTVSPropertyOp13
 70
     1
102
RTVSPropertyOp14
 70
     1
102
RTVSPropertyOp15
 70
     1
102
RTVSPropertyOp16
 70
     1
102
RTVSPropertyOp17
 70
     1
102
RTVSPropertyOp18
 70
     1
102
RTVSPropertyOp19
 70
     1
102
RTVSPropertyOp20
 70
     1
102
RTVSPropertyOp21
 70
     1
102
RTVSPropertyOp22
 70
     1
102
RTVSPropertyOp23
 70
     1
102
RTVSPropertyOp24
 70
     1
102
RTVSPropertyOp25
 70
     1
102
RTVSPropertyOp26
 70
     1
102
RTVSPropertyOp27
 70
     1
102
RTVSPropertyOp28
 70
     1
102
RTVSPropertyOp29
 70
     1
102
RTVSPropertyOp30
 70
     1
102
RTVSPropertyOp31
 70
     1
102
RTVSPropertyOp32
 70
     1
  0
XRECORD
  5
611A
102
{ACAD_REACTORS
330
6119
102
}
330
6119
100
AcDbXrecord
280
     1
102
RTVSPropertyOp0
 70
     1
102
RTVSPropertyOp1
 70
     1
102
RTVSPropertyOp2
 70
     1
102
RTVSPropertyOp3
 70
     1
102
RTVSPropertyOp4
 70
     1
102
RTVSPropertyOp5
 70
     1
102
RTVSPropertyOp6
 70
     1
102
RTVSPropertyOp7
 70
     1
102
RTVSPropertyOp8
 70
     1
102
RTVSPropertyOp9
 70
     1
102
RTVSPropertyOp10
 70
     1
102
RTVSPropertyOp11
 70
     1
102
RTVSPropertyOp12
 70
     1
102
RTVSPropertyOp13
 70
     1
102
RTVSPropertyOp14
 70
     1
102
RTVSPropertyOp15
 70
     1
102
RTVSPropertyOp16
 70
     1
102
RTVSPropertyOp17
 70
     1
102
RTVSPropertyOp18
 70
     1
102
RTVSPropertyOp19
 70
     1
102
RTVSPropertyOp20
 70
     1
102
RTVSPropertyOp21
 70
     1
102
RTVSPropertyOp22
 70
     1
102
RTVSPropertyOp23
 70
     1
102
RTVSPropertyOp24
 70
     1
102
RTVSPropertyOp25
 70
     1
102
RTVSPropertyOp26
 70
     1
102
RTVSPropertyOp27
 70
     1
102
RTVSPropertyOp28
 70
     1
102
RTVSPropertyOp29
 70
     1
102
RTVSPropertyOp30
 70
     1
102
RTVSPropertyOp31
 70
     1
102
RTVSPropertyOp32
 70
     1
  0
XRECORD
  5
610C
102
{ACAD_REACTORS
330
610B
102
}
330
610B
100
AcDbXrecord
280
     1
102
RTVSPropertyOp0
 70
     1
102
RTVSPropertyOp1
 70
     1
102
RTVSPropertyOp2
 70
     1
102
RTVSPropertyOp3
 70
     1
102
RTVSPropertyOp4
 70
     1
102
RTVSPropertyOp5
 70
     1
102
RTVSPropertyOp6
 70
     1
102
RTVSPropertyOp7
 70
     1
102
RTVSPropertyOp8
 70
     1
102
RTVSPropertyOp9
 70
     1
102
RTVSPropertyOp10
 70
     1
102
RTVSPropertyOp11
 70
     1
102
RTVSPropertyOp12
 70
     1
102
RTVSPropertyOp13
 70
     1
102
RTVSPropertyOp14
 70
     1
102
RTVSPropertyOp15
 70
     1
102
RTVSPropertyOp16
 70
     1
102
RTVSPropertyOp17
 70
     1
102
RTVSPropertyOp18
 70
     1
102
RTVSPropertyOp19
 70
     1
102
RTVSPropertyOp20
 70
     1
102
RTVSPropertyOp21
 70
     1
102
RTVSPropertyOp22
 70
     1
102
RTVSPropertyOp23
 70
     1
102
RTVSPropertyOp24
 70
     1
102
RTVSPropertyOp25
 70
     1
102
RTVSPropertyOp26
 70
     1
102
RTVSPropertyOp27
 70
     1
102
RTVSPropertyOp28
 70
     1
102
RTVSPropertyOp29
 70
     1
102
RTVSPropertyOp30
 70
     1
102
RTVSPropertyOp31
 70
     1
102
RTVSPropertyOp32
 70
     1
  0
XRECORD
  5
6110
102
{ACAD_REACTORS
330
610F
102
}
330
610F
100
AcDbXrecord
280
     1
102
RTVSPropertyOp0
 70
     1
102
RTVSPropertyOp1
 70
     1
102
RTVSPropertyOp2
 70
     1
102
RTVSPropertyOp3
 70
     1
102
RTVSPropertyOp4
 70
     1
102
RTVSPropertyOp5
 70
     1
102
RTVSPropertyOp6
 70
     1
102
RTVSPropertyOp7
 70
     1
102
RTVSPropertyOp8
 70
     1
102
RTVSPropertyOp9
 70
     1
102
RTVSPropertyOp10
 70
     1
102
RTVSPropertyOp11
 70
     1
102
RTVSPropertyOp12
 70
     1
102
RTVSPropertyOp13
 70
     1
102
RTVSPropertyOp14
 70
     1
102
RTVSPropertyOp15
 70
     1
102
RTVSPropertyOp16
 70
     1
102
RTVSPropertyOp17
 70
     1
102
RTVSPropertyOp18
 70
     1
102
RTVSPropertyOp19
 70
     1
102
RTVSPropertyOp20
 70
     1
102
RTVSPropertyOp21
 70
     1
102
RTVSPropertyOp22
 70
     1
102
RTVSPropertyOp23
 70
     1
102
RTVSPropertyOp24
 70
     1
102
RTVSPropertyOp25
 70
     1
102
RTVSPropertyOp26
 70
     1
102
RTVSPropertyOp27
 70
     1
102
RTVSPropertyOp28
 70
     1
102
RTVSPropertyOp29
 70
     1
102
RTVSPropertyOp30
 70
     1
102
RTVSPropertyOp31
 70
     1
102
RTVSPropertyOp32
 70
     1
  0
XRECORD
  5
6121
102
{ACAD_REACTORS
330
6120
102
}
330
6120
100
AcDbXrecord
280
     1
102
RTVSPropertyOp0
 70
     0
102
RTVSPropertyOp1
 70
     0
102
RTVSPropertyOp2
 70
     0
102
RTVSPropertyOp3
 70
     0
102
RTVSPropertyOp4
 70
     0
102
RTVSPropertyOp5
 70
     0
102
RTVSPropertyOp6
 70
     0
102
RTVSPropertyOp7
 70
     0
102
RTVSPropertyOp8
 70
     0
102
RTVSPropertyOp9
 70
     0
102
RTVSPropertyOp10
 70
     0
102
RTVSPropertyOp11
 70
     0
102
RTVSPropertyOp12
 70
     0
102
RTVSPropertyOp13
 70
     0
102
RTVSPropertyOp14
 70
     2
102
RTVSPropertyOp15
 70
     0
102
RTVSPropertyOp16
 70
     0
102
RTVSPropertyOp17
 70
     0
102
RTVSPropertyOp18
 70
     0
102
RTVSPropertyOp19
 70
     0
102
RTVSPropertyOp20
 70
     0
102
RTVSPropertyOp21
 70
     0
102
RTVSPropertyOp22
 70
     0
102
RTVSPropertyOp23
 70
     0
102
RTVSPropertyOp24
 70
     0
102
RTVSPropertyOp25
 70
     0
102
RTVSPropertyOp26
 70
     0
102
RTVSPropertyOp27
 70
     0
102
RTVSPropertyOp28
 70
     1
102
RTVSPropertyOp29
 70
     1
102
RTVSPropertyOp30
 70
     1
102
RTVSPropertyOp31
 70
     1
102
RTVSPropertyOp32
 70
     1
  0
XRECORD
  5
6118
102
{ACAD_REACTORS
330
6117
102
}
330
6117
100
AcDbXrecord
280
     1
102
RTVSPropertyOp0
 70
     1
102
RTVSPropertyOp1
 70
     1
102
RTVSPropertyOp2
 70
     1
102
RTVSPropertyOp3
 70
     1
102
RTVSPropertyOp4
 70
     1
102
RTVSPropertyOp5
 70
     1
102
RTVSPropertyOp6
 70
     1
102
RTVSPropertyOp7
 70
     1
102
RTVSPropertyOp8
 70
     1
102
RTVSPropertyOp9
 70
     1
102
RTVSPropertyOp10
 70
     1
102
RTVSPropertyOp11
 70
     1
102
RTVSPropertyOp12
 70
     1
102
RTVSPropertyOp13
 70
     1
102
RTVSPropertyOp14
 70
     1
102
RTVSPropertyOp15
 70
     1
102
RTVSPropertyOp16
 70
     1
102
RTVSPropertyOp17
 70
     1
102
RTVSPropertyOp18
 70
     1
102
RTVSPropertyOp19
 70
     1
102
RTVSPropertyOp20
 70
     1
102
RTVSPropertyOp21
 70
     1
102
RTVSPropertyOp22
 70
     1
102
RTVSPropertyOp23
 70
     1
102
RTVSPropertyOp24
 70
     1
102
RTVSPropertyOp25
 70
     1
102
RTVSPropertyOp26
 70
     1
102
RTVSPropertyOp27
 70
     1
102
RTVSPropertyOp28
 70
     1
102
RTVSPropertyOp29
 70
     1
102
RTVSPropertyOp30
 70
     1
102
RTVSPropertyOp31
 70
     1
102
RTVSPropertyOp32
 70
     1
  0
XRECORD
  5
60FC
102
{ACAD_REACTORS
330
60FB
102
}
330
60FB
100
AcDbXrecord
280
     1
102
RTVSPropertyOp0
 70
     1
102
RTVSPropertyOp1
 70
     1
102
RTVSPropertyOp2
 70
     1
102
RTVSPropertyOp3
 70
     1
102
RTVSPropertyOp4
 70
     1
102
RTVSPropertyOp5
 70
     1
102
RTVSPropertyOp6
 70
     1
102
RTVSPropertyOp7
 70
     1
102
RTVSPropertyOp8
 70
     1
102
RTVSPropertyOp9
 70
     1
102
RTVSPropertyOp10
 70
     1
102
RTVSPropertyOp11
 70
     1
102
RTVSPropertyOp12
 70
     1
102
RTVSPropertyOp13
 70
     1
102
RTVSPropertyOp14
 70
     1
102
RTVSPropertyOp15
 70
     1
102
RTVSPropertyOp16
 70
     1
102
RTVSPropertyOp17
 70
     1
102
RTVSPropertyOp18
 70
     1
102
RTVSPropertyOp19
 70
     1
102
RTVSPropertyOp20
 70
     1
102
RTVSPropertyOp21
 70
     1
102
RTVSPropertyOp22
 70
     1
102
RTVSPropertyOp23
 70
     1
102
RTVSPropertyOp24
 70
     1
102
RTVSPropertyOp25
 70
     1
102
RTVSPropertyOp26
 70
     1
102
RTVSPropertyOp27
 70
     1
102
RTVSPropertyOp28
 70
     1
102
RTVSPropertyOp29
 70
     1
102
RTVSPropertyOp30
 70
     1
102
RTVSPropertyOp31
 70
     1
102
RTVSPropertyOp32
 70
     1
  0
XRECORD
  5
60FE
102
{ACAD_REACTORS
330
60FD
102
}
330
60FD
100
AcDbXrecord
280
     1
102
RTVSPropertyOp0
 70
     1
102
RTVSPropertyOp1
 70
     1
102
RTVSPropertyOp2
 70
     1
102
RTVSPropertyOp3
 70
     1
102
RTVSPropertyOp4
 70
     1
102
RTVSPropertyOp5
 70
     1
102
RTVSPropertyOp6
 70
     1
102
RTVSPropertyOp7
 70
     1
102
RTVSPropertyOp8
 70
     1
102
RTVSPropertyOp9
 70
     1
102
RTVSPropertyOp10
 70
     1
102
RTVSPropertyOp11
 70
     1
102
RTVSPropertyOp12
 70
     1
102
RTVSPropertyOp13
 70
     1
102
RTVSPropertyOp14
 70
     1
102
RTVSPropertyOp15
 70
     1
102
RTVSPropertyOp16
 70
     1
102
RTVSPropertyOp17
 70
     1
102
RTVSPropertyOp18
 70
     1
102
RTVSPropertyOp19
 70
     1
102
RTVSPropertyOp20
 70
     1
102
RTVSPropertyOp21
 70
     1
102
RTVSPropertyOp22
 70
     1
102
RTVSPropertyOp23
 70
     1
102
RTVSPropertyOp24
 70
     1
102
RTVSPropertyOp25
 70
     1
102
RTVSPropertyOp26
 70
     1
102
RTVSPropertyOp27
 70
     1
102
RTVSPropertyOp28
 70
     1
102
RTVSPropertyOp29
 70
     1
102
RTVSPropertyOp30
 70
     1
102
RTVSPropertyOp31
 70
     1
102
RTVSPropertyOp32
 70
     1
  0
XRECORD
  5
6100
102
{ACAD_REACTORS
330
60FF
102
}
330
60FF
100
AcDbXrecord
280
     1
102
RTVSPropertyOp0
 70
     1
102
RTVSPropertyOp1
 70
     1
102
RTVSPropertyOp2
 70
     1
102
RTVSPropertyOp3
 70
     1
102
RTVSPropertyOp4
 70
     1
102
RTVSPropertyOp5
 70
     1
102
RTVSPropertyOp6
 70
     1
102
RTVSPropertyOp7
 70
     1
102
RTVSPropertyOp8
 70
     1
102
RTVSPropertyOp9
 70
     1
102
RTVSPropertyOp10
 70
     1
102
RTVSPropertyOp11
 70
     1
102
RTVSPropertyOp12
 70
     1
102
RTVSPropertyOp13
 70
     1
102
RTVSPropertyOp14
 70
     1
102
RTVSPropertyOp15
 70
     1
102
RTVSPropertyOp16
 70
     1
102
RTVSPropertyOp17
 70
     1
102
RTVSPropertyOp18
 70
     1
102
RTVSPropertyOp19
 70
     1
102
RTVSPropertyOp20
 70
     1
102
RTVSPropertyOp21
 70
     1
102
RTVSPropertyOp22
 70
     1
102
RTVSPropertyOp23
 70
     1
102
RTVSPropertyOp24
 70
     1
102
RTVSPropertyOp25
 70
     1
102
RTVSPropertyOp26
 70
     1
102
RTVSPropertyOp27
 70
     1
102
RTVSPropertyOp28
 70
     1
102
RTVSPropertyOp29
 70
     1
102
RTVSPropertyOp30
 70
     1
102
RTVSPropertyOp31
 70
     1
102
RTVSPropertyOp32
 70
     1
  0
XRECORD
  5
6102
102
{ACAD_REACTORS
330
6101
102
}
330
6101
100
AcDbXrecord
280
     1
102
RTVSPropertyOp0
 70
     1
102
RTVSPropertyOp1
 70
     1
102
RTVSPropertyOp2
 70
     1
102
RTVSPropertyOp3
 70
     1
102
RTVSPropertyOp4
 70
     1
102
RTVSPropertyOp5
 70
     1
102
RTVSPropertyOp6
 70
     1
102
RTVSPropertyOp7
 70
     1
102
RTVSPropertyOp8
 70
     1
102
RTVSPropertyOp9
 70
     1
102
RTVSPropertyOp10
 70
     1
102
RTVSPropertyOp11
 70
     1
102
RTVSPropertyOp12
 70
     1
102
RTVSPropertyOp13
 70
     1
102
RTVSPropertyOp14
 70
     1
102
RTVSPropertyOp15
 70
     1
102
RTVSPropertyOp16
 70
     1
102
RTVSPropertyOp17
 70
     1
102
RTVSPropertyOp18
 70
     1
102
RTVSPropertyOp19
 70
     1
102
RTVSPropertyOp20
 70
     1
102
RTVSPropertyOp21
 70
     1
102
RTVSPropertyOp22
 70
     1
102
RTVSPropertyOp23
 70
     1
102
RTVSPropertyOp24
 70
     1
102
RTVSPropertyOp25
 70
     1
102
RTVSPropertyOp26
 70
     1
102
RTVSPropertyOp27
 70
     1
102
RTVSPropertyOp28
 70
     1
102
RTVSPropertyOp29
 70
     1
102
RTVSPropertyOp30
 70
     1
102
RTVSPropertyOp31
 70
     1
102
RTVSPropertyOp32
 70
     1
  0
XRECORD
  5
6125
102
{ACAD_REACTORS
330
6124
102
}
330
6124
100
AcDbXrecord
280
     1
102
RTVSPropertyOp0
 70
     1
102
RTVSPropertyOp1
 70
     1
102
RTVSPropertyOp2
 70
     1
102
RTVSPropertyOp3
 70
     1
102
RTVSPropertyOp4
 70
     1
102
RTVSPropertyOp5
 70
     1
102
RTVSPropertyOp6
 70
     1
102
RTVSPropertyOp7
 70
     1
102
RTVSPropertyOp8
 70
     1
102
RTVSPropertyOp9
 70
     1
102
RTVSPropertyOp10
 70
     1
102
RTVSPropertyOp11
 70
     1
102
RTVSPropertyOp12
 70
     1
102
RTVSPropertyOp13
 70
     1
102
RTVSPropertyOp14
 70
     1
102
RTVSPropertyOp15
 70
     1
102
RTVSPropertyOp16
 70
     1
102
RTVSPropertyOp17
 70
     1
102
RTVSPropertyOp18
 70
     1
102
RTVSPropertyOp19
 70
     1
102
RTVSPropertyOp20
 70
     1
102
RTVSPropertyOp21
 70
     1
102
RTVSPropertyOp22
 70
     1
102
RTVSPropertyOp23
 70
     1
102
RTVSPropertyOp24
 70
     1
102
RTVSPropertyOp25
 70
     1
102
RTVSPropertyOp26
 70
     1
102
RTVSPropertyOp27
 70
     1
102
RTVSPropertyOp28
 70
     1
102
RTVSPropertyOp29
 70
     1
102
RTVSPropertyOp30
 70
     1
102
RTVSPropertyOp31
 70
     1
102
RTVSPropertyOp32
 70
     1
  0
XRECORD
  5
611D
102
{ACAD_REACTORS
330
611C
102
}
330
611C
100
AcDbXrecord
280
     1
102
RTVSPropertyOp0
 70
     0
102
RTVSPropertyOp1
 70
     0
102
RTVSPropertyOp2
 70
     0
102
RTVSPropertyOp3
 70
     0
102
RTVSPropertyOp4
 70
     0
102
RTVSPropertyOp5
 70
     0
102
RTVSPropertyOp6
 70
     0
102
RTVSPropertyOp7
 70
     0
102
RTVSPropertyOp8
 70
     0
102
RTVSPropertyOp9
 70
     0
102
RTVSPropertyOp10
 70
     0
102
RTVSPropertyOp11
 70
     0
102
RTVSPropertyOp12
 70
     0
102
RTVSPropertyOp13
 70
     0
102
RTVSPropertyOp14
 70
     2
102
RTVSPropertyOp15
 70
     0
102
RTVSPropertyOp16
 70
     0
102
RTVSPropertyOp17
 70
     0
102
RTVSPropertyOp18
 70
     0
102
RTVSPropertyOp19
 70
     0
102
RTVSPropertyOp20
 70
     0
102
RTVSPropertyOp21
 70
     0
102
RTVSPropertyOp22
 70
     0
102
RTVSPropertyOp23
 70
     0
102
RTVSPropertyOp24
 70
     0
102
RTVSPropertyOp25
 70
     0
102
RTVSPropertyOp26
 70
     0
102
RTVSPropertyOp27
 70
     0
102
RTVSPropertyOp28
 70
     1
102
RTVSPropertyOp29
 70
     1
102
RTVSPropertyOp30
 70
     1
102
RTVSPropertyOp31
 70
     1
102
RTVSPropertyOp32
 70
     1
  0
XRECORD
  5
6116
102
{ACAD_REACTORS
330
6115
102
}
330
6115
100
AcDbXrecord
280
     1
102
RTVSPropertyOp0
 70
     1
102
RTVSPropertyOp1
 70
     1
102
RTVSPropertyOp2
 70
     1
102
RTVSPropertyOp3
 70
     1
102
RTVSPropertyOp4
 70
     1
102
RTVSPropertyOp5
 70
     1
102
RTVSPropertyOp6
 70
     1
102
RTVSPropertyOp7
 70
     1
102
RTVSPropertyOp8
 70
     1
102
RTVSPropertyOp9
 70
     1
102
RTVSPropertyOp10
 70
     1
102
RTVSPropertyOp11
 70
     1
102
RTVSPropertyOp12
 70
     1
102
RTVSPropertyOp13
 70
     1
102
RTVSPropertyOp14
 70
     1
102
RTVSPropertyOp15
 70
     1
102
RTVSPropertyOp16
 70
     1
102
RTVSPropertyOp17
 70
     1
102
RTVSPropertyOp18
 70
     1
102
RTVSPropertyOp19
 70
     1
102
RTVSPropertyOp20
 70
     1
102
RTVSPropertyOp21
 70
     1
102
RTVSPropertyOp22
 70
     1
102
RTVSPropertyOp23
 70
     1
102
RTVSPropertyOp24
 70
     1
102
RTVSPropertyOp25
 70
     1
102
RTVSPropertyOp26
 70
     1
102
RTVSPropertyOp27
 70
     1
102
RTVSPropertyOp28
 70
     1
102
RTVSPropertyOp29
 70
     1
102
RTVSPropertyOp30
 70
     1
102
RTVSPropertyOp31
 70
     1
102
RTVSPropertyOp32
 70
     1
  0
XRECORD
  5
611F
102
{ACAD_REACTORS
330
611E
102
}
330
611E
100
AcDbXrecord
280
     1
102
RTVSPropertyOp0
 70
     0
102
RTVSPropertyOp1
 70
     0
102
RTVSPropertyOp2
 70
     0
102
RTVSPropertyOp3
 70
     0
102
RTVSPropertyOp4
 70
     0
102
RTVSPropertyOp5
 70
     0
102
RTVSPropertyOp6
 70
     0
102
RTVSPropertyOp7
 70
     0
102
RTVSPropertyOp8
 70
     0
102
RTVSPropertyOp9
 70
     0
102
RTVSPropertyOp10
 70
     0
102
RTVSPropertyOp11
 70
     0
102
RTVSPropertyOp12
 70
     0
102
RTVSPropertyOp13
 70
     0
102
RTVSPropertyOp14
 70
     2
102
RTVSPropertyOp15
 70
     0
102
RTVSPropertyOp16
 70
     0
102
RTVSPropertyOp17
 70
     0
102
RTVSPropertyOp18
 70
     0
102
RTVSPropertyOp19
 70
     0
102
RTVSPropertyOp20
 70
     0
102
RTVSPropertyOp21
 70
     0
102
RTVSPropertyOp22
 70
     0
102
RTVSPropertyOp23
 70
     0
102
RTVSPropertyOp24
 70
     0
102
RTVSPropertyOp25
 70
     0
102
RTVSPropertyOp26
 70
     0
102
RTVSPropertyOp27
 70
     0
102
RTVSPropertyOp28
 70
     1
102
RTVSPropertyOp29
 70
     1
102
RTVSPropertyOp30
 70
     1
102
RTVSPropertyOp31
 70
     1
102
RTVSPropertyOp32
 70
     1
  0
XRECORD
  5
610E
102
{ACAD_REACTORS
330
610D
102
}
330
610D
100
AcDbXrecord
280
     1
102
RTVSPropertyOp0
 70
     1
102
RTVSPropertyOp1
 70
     1
102
RTVSPropertyOp2
 70
     1
102
RTVSPropertyOp3
 70
     1
102
RTVSPropertyOp4
 70
     1
102
RTVSPropertyOp5
 70
     1
102
RTVSPropertyOp6
 70
     1
102
RTVSPropertyOp7
 70
     1
102
RTVSPropertyOp8
 70
     1
102
RTVSPropertyOp9
 70
     1
102
RTVSPropertyOp10
 70
     1
102
RTVSPropertyOp11
 70
     1
102
RTVSPropertyOp12
 70
     1
102
RTVSPropertyOp13
 70
     1
102
RTVSPropertyOp14
 70
     1
102
RTVSPropertyOp15
 70
     1
102
RTVSPropertyOp16
 70
     1
102
RTVSPropertyOp17
 70
     1
102
RTVSPropertyOp18
 70
     1
102
RTVSPropertyOp19
 70
     1
102
RTVSPropertyOp20
 70
     1
102
RTVSPropertyOp21
 70
     1
102
RTVSPropertyOp22
 70
     1
102
RTVSPropertyOp23
 70
     1
102
RTVSPropertyOp24
 70
     1
102
RTVSPropertyOp25
 70
     1
102
RTVSPropertyOp26
 70
     1
102
RTVSPropertyOp27
 70
     1
102
RTVSPropertyOp28
 70
     1
102
RTVSPropertyOp29
 70
     1
102
RTVSPropertyOp30
 70
     1
102
RTVSPropertyOp31
 70
     1
102
RTVSPropertyOp32
 70
     1
  0
XRECORD
  5
612F
102
{ACAD_REACTORS
330
612E
102
}
330
612E
100
AcDbXrecord
280
     1
102
RTVSPropertyOp0
 70
     1
102
RTVSPropertyOp1
 70
     1
102
RTVSPropertyOp2
 70
     1
102
RTVSPropertyOp3
 70
     1
102
RTVSPropertyOp4
 70
     1
102
RTVSPropertyOp5
 70
     1
102
RTVSPropertyOp6
 70
     1
102
RTVSPropertyOp7
 70
     1
102
RTVSPropertyOp8
 70
     1
102
RTVSPropertyOp9
 70
     1
102
RTVSPropertyOp10
 70
     1
102
RTVSPropertyOp11
 70
     1
102
RTVSPropertyOp12
 70
     1
102
RTVSPropertyOp13
 70
     1
102
RTVSPropertyOp14
 70
     1
102
RTVSPropertyOp15
 70
     1
102
RTVSPropertyOp16
 70
     1
102
RTVSPropertyOp17
 70
     1
102
RTVSPropertyOp18
 70
     1
102
RTVSPropertyOp19
 70
     1
102
RTVSPropertyOp20
 70
     1
102
RTVSPropertyOp21
 70
     1
102
RTVSPropertyOp22
 70
     1
102
RTVSPropertyOp23
 70
     1
102
RTVSPropertyOp24
 70
     1
102
RTVSPropertyOp25
 70
     1
102
RTVSPropertyOp26
 70
     1
102
RTVSPropertyOp27
 70
     1
102
RTVSPropertyOp28
 70
     1
102
RTVSPropertyOp29
 70
     1
102
RTVSPropertyOp30
 70
     1
102
RTVSPropertyOp31
 70
     1
102
RTVSPropertyOp32
 70
     1
  0
XRECORD
  5
612D
102
{ACAD_REACTORS
330
612C
102
}
330
612C
100
AcDbXrecord
280
     1
102
RTVSPropertyOp0
 70
     1
102
RTVSPropertyOp1
 70
     1
102
RTVSPropertyOp2
 70
     1
102
RTVSPropertyOp3
 70
     1
102
RTVSPropertyOp4
 70
     1
102
RTVSPropertyOp5
 70
     1
102
RTVSPropertyOp6
 70
     1
102
RTVSPropertyOp7
 70
     1
102
RTVSPropertyOp8
 70
     1
102
RTVSPropertyOp9
 70
     1
102
RTVSPropertyOp10
 70
     1
102
RTVSPropertyOp11
 70
     1
102
RTVSPropertyOp12
 70
     1
102
RTVSPropertyOp13
 70
     1
102
RTVSPropertyOp14
 70
     1
102
RTVSPropertyOp15
 70
     1
102
RTVSPropertyOp16
 70
     1
102
RTVSPropertyOp17
 70
     1
102
RTVSPropertyOp18
 70
     1
102
RTVSPropertyOp19
 70
     1
102
RTVSPropertyOp20
 70
     1
102
RTVSPropertyOp21
 70
     1
102
RTVSPropertyOp22
 70
     1
102
RTVSPropertyOp23
 70
     1
102
RTVSPropertyOp24
 70
     1
102
RTVSPropertyOp25
 70
     1
102
RTVSPropertyOp26
 70
     1
102
RTVSPropertyOp27
 70
     1
102
RTVSPropertyOp28
 70
     1
102
RTVSPropertyOp29
 70
     1
102
RTVSPropertyOp30
 70
     1
102
RTVSPropertyOp31
 70
     1
102
RTVSPropertyOp32
 70
     1
  0
XRECORD
  5
6127
102
{ACAD_REACTORS
330
6126
102
}
330
6126
100
AcDbXrecord
280
     1
102
RTVSPropertyOp0
 70
     1
102
RTVSPropertyOp1
 70
     1
102
RTVSPropertyOp2
 70
     1
102
RTVSPropertyOp3
 70
     1
102
RTVSPropertyOp4
 70
     1
102
RTVSPropertyOp5
 70
     1
102
RTVSPropertyOp6
 70
     1
102
RTVSPropertyOp7
 70
     1
102
RTVSPropertyOp8
 70
     1
102
RTVSPropertyOp9
 70
     1
102
RTVSPropertyOp10
 70
     1
102
RTVSPropertyOp11
 70
     1
102
RTVSPropertyOp12
 70
     1
102
RTVSPropertyOp13
 70
     1
102
RTVSPropertyOp14
 70
     1
102
RTVSPropertyOp15
 70
     1
102
RTVSPropertyOp16
 70
     1
102
RTVSPropertyOp17
 70
     1
102
RTVSPropertyOp18
 70
     1
102
RTVSPropertyOp19
 70
     1
102
RTVSPropertyOp20
 70
     1
102
RTVSPropertyOp21
 70
     1
102
RTVSPropertyOp22
 70
     1
102
RTVSPropertyOp23
 70
     1
102
RTVSPropertyOp24
 70
     1
102
RTVSPropertyOp25
 70
     1
102
RTVSPropertyOp26
 70
     1
102
RTVSPropertyOp27
 70
     1
102
RTVSPropertyOp28
 70
     1
102
RTVSPropertyOp29
 70
     1
102
RTVSPropertyOp30
 70
     1
102
RTVSPropertyOp31
 70
     1
102
RTVSPropertyOp32
 70
     1
  0
XRECORD
  5
6129
102
{ACAD_REACTORS
330
6128
102
}
330
6128
100
AcDbXrecord
280
     1
102
RTVSPropertyOp0
 70
     1
102
RTVSPropertyOp1
 70
     1
102
RTVSPropertyOp2
 70
     1
102
RTVSPropertyOp3
 70
     1
102
RTVSPropertyOp4
 70
     1
102
RTVSPropertyOp5
 70
     1
102
RTVSPropertyOp6
 70
     1
102
RTVSPropertyOp7
 70
     1
102
RTVSPropertyOp8
 70
     1
102
RTVSPropertyOp9
 70
     1
102
RTVSPropertyOp10
 70
     1
102
RTVSPropertyOp11
 70
     1
102
RTVSPropertyOp12
 70
     1
102
RTVSPropertyOp13
 70
     1
102
RTVSPropertyOp14
 70
     1
102
RTVSPropertyOp15
 70
     1
102
RTVSPropertyOp16
 70
     1
102
RTVSPropertyOp17
 70
     1
102
RTVSPropertyOp18
 70
     1
102
RTVSPropertyOp19
 70
     1
102
RTVSPropertyOp20
 70
     1
102
RTVSPropertyOp21
 70
     1
102
RTVSPropertyOp22
 70
     1
102
RTVSPropertyOp23
 70
     1
102
RTVSPropertyOp24
 70
     1
102
RTVSPropertyOp25
 70
     1
102
RTVSPropertyOp26
 70
     1
102
RTVSPropertyOp27
 70
     1
102
RTVSPropertyOp28
 70
     1
102
RTVSPropertyOp29
 70
     1
102
RTVSPropertyOp30
 70
     1
102
RTVSPropertyOp31
 70
     1
102
RTVSPropertyOp32
 70
     1
  0
XRECORD
  5
6114
102
{ACAD_REACTORS
330
6113
102
}
330
6113
100
AcDbXrecord
280
     1
102
RTVSPropertyOp0
 70
     1
102
RTVSPropertyOp1
 70
     1
102
RTVSPropertyOp2
 70
     1
102
RTVSPropertyOp3
 70
     1
102
RTVSPropertyOp4
 70
     1
102
RTVSPropertyOp5
 70
     1
102
RTVSPropertyOp6
 70
     1
102
RTVSPropertyOp7
 70
     1
102
RTVSPropertyOp8
 70
     1
102
RTVSPropertyOp9
 70
     1
102
RTVSPropertyOp10
 70
     1
102
RTVSPropertyOp11
 70
     1
102
RTVSPropertyOp12
 70
     1
102
RTVSPropertyOp13
 70
     1
102
RTVSPropertyOp14
 70
     1
102
RTVSPropertyOp15
 70
     1
102
RTVSPropertyOp16
 70
     1
102
RTVSPropertyOp17
 70
     1
102
RTVSPropertyOp18
 70
     1
102
RTVSPropertyOp19
 70
     1
102
RTVSPropertyOp20
 70
     1
102
RTVSPropertyOp21
 70
     1
102
RTVSPropertyOp22
 70
     1
102
RTVSPropertyOp23
 70
     1
102
RTVSPropertyOp24
 70
     1
102
RTVSPropertyOp25
 70
     1
102
RTVSPropertyOp26
 70
     1
102
RTVSPropertyOp27
 70
     1
102
RTVSPropertyOp28
 70
     1
102
RTVSPropertyOp29
 70
     1
102
RTVSPropertyOp30
 70
     1
102
RTVSPropertyOp31
 70
     1
102
RTVSPropertyOp32
 70
     1
  0
XRECORD
  5
6123
102
{ACAD_REACTORS
330
6122
102
}
330
6122
100
AcDbXrecord
280
     1
102
RTVSPropertyOp0
 70
     1
102
RTVSPropertyOp1
 70
     1
102
RTVSPropertyOp2
 70
     1
102
RTVSPropertyOp3
 70
     1
102
RTVSPropertyOp4
 70
     1
102
RTVSPropertyOp5
 70
     1
102
RTVSPropertyOp6
 70
     1
102
RTVSPropertyOp7
 70
     1
102
RTVSPropertyOp8
 70
     1
102
RTVSPropertyOp9
 70
     1
102
RTVSPropertyOp10
 70
     1
102
RTVSPropertyOp11
 70
     1
102
RTVSPropertyOp12
 70
     1
102
RTVSPropertyOp13
 70
     1
102
RTVSPropertyOp14
 70
     1
102
RTVSPropertyOp15
 70
     1
102
RTVSPropertyOp16
 70
     1
102
RTVSPropertyOp17
 70
     1
102
RTVSPropertyOp18
 70
     1
102
RTVSPropertyOp19
 70
     1
102
RTVSPropertyOp20
 70
     1
102
RTVSPropertyOp21
 70
     1
102
RTVSPropertyOp22
 70
     1
102
RTVSPropertyOp23
 70
     1
102
RTVSPropertyOp24
 70
     1
102
RTVSPropertyOp25
 70
     1
102
RTVSPropertyOp26
 70
     1
102
RTVSPropertyOp27
 70
     1
102
RTVSPropertyOp28
 70
     1
102
RTVSPropertyOp29
 70
     1
102
RTVSPropertyOp30
 70
     1
102
RTVSPropertyOp31
 70
     1
102
RTVSPropertyOp32
 70
     1
  0
XRECORD
  5
612B
102
{ACAD_REACTORS
330
612A
102
}
330
612A
100
AcDbXrecord
280
     1
102
RTVSPropertyOp0
 70
     1
102
RTVSPropertyOp1
 70
     1
102
RTVSPropertyOp2
 70
     1
102
RTVSPropertyOp3
 70
     1
102
RTVSPropertyOp4
 70
     1
102
RTVSPropertyOp5
 70
     1
102
RTVSPropertyOp6
 70
     1
102
RTVSPropertyOp7
 70
     1
102
RTVSPropertyOp8
 70
     1
102
RTVSPropertyOp9
 70
     1
102
RTVSPropertyOp10
 70
     1
102
RTVSPropertyOp11
 70
     1
102
RTVSPropertyOp12
 70
     1
102
RTVSPropertyOp13
 70
     1
102
RTVSPropertyOp14
 70
     1
102
RTVSPropertyOp15
 70
     1
102
RTVSPropertyOp16
 70
     1
102
RTVSPropertyOp17
 70
     1
102
RTVSPropertyOp18
 70
     1
102
RTVSPropertyOp19
 70
     1
102
RTVSPropertyOp20
 70
     1
102
RTVSPropertyOp21
 70
     1
102
RTVSPropertyOp22
 70
     1
102
RTVSPropertyOp23
 70
     1
102
RTVSPropertyOp24
 70
     1
102
RTVSPropertyOp25
 70
     1
102
RTVSPropertyOp26
 70
     1
102
RTVSPropertyOp27
 70
     1
102
RTVSPropertyOp28
 70
     1
102
RTVSPropertyOp29
 70
     1
102
RTVSPropertyOp30
 70
     1
102
RTVSPropertyOp31
 70
     1
102
RTVSPropertyOp32
 70
     1
  0
ENDSEC
  0
EOF
